<?xml version="1.0" standalone="no"?>
<!DOCTYPE svg PUBLIC "-//W3C//DTD SVG 1.1//EN" "http://www.w3.org/Graphics/SVG/1.1/DTD/svg11.dtd" >
<svg xmlns="http://www.w3.org/2000/svg">
<metadata></metadata>
<defs>
<font id="maxwell_lightregular" horiz-adv-x="325" >
<font-face units-per-em="2048" ascent="1638" descent="-410" />
<missing-glyph horiz-adv-x="401" />
<glyph horiz-adv-x="0" />
<glyph unicode="&#xd;" horiz-adv-x="401" />
<glyph unicode=" "  horiz-adv-x="401" />
<glyph unicode="&#x09;" horiz-adv-x="401" />
<glyph unicode="&#xa0;" horiz-adv-x="401" />
<glyph unicode="!" d="M97 65q0 63 65 63t65 -63q0 -26 -19 -45.5t-46 -19.5q-26 0 -45.5 19.5t-19.5 45.5zM131 361v859q0 31 31 31t31 -31v-859q0 -31 -31 -31t-31 31z" />
<glyph unicode="&#x22;" horiz-adv-x="613" d="M44 889q0 9 61.5 165.5t72.5 176.5t28 20q33 0 33 -30q0 -9 -62 -166t-73.5 -176.5t-26.5 -19.5q-33 0 -33 30zM374 889q0 9 62 165.5t73 176.5t27 20q33 0 33 -30q0 -9 -61.5 -166t-73 -176.5t-27.5 -19.5q-33 0 -33 30z" />
<glyph unicode="#" horiz-adv-x="1338" d="M44 427q0 31 31 31h365v335h-365q-31 0 -31 31q0 30 31 30h365v366q0 31 31 31t31 -31v-366h335v366q0 31 31 31q30 0 30 -31v-366h366q31 0 31 -30q0 -31 -31 -31h-366v-335h366q31 0 31 -31t-31 -31h-366v-365q0 -31 -30 -31q-31 0 -31 31v365h-335v-365q0 -31 -31 -31 t-31 31v365h-365q-31 0 -31 31zM502 458h335v335h-335v-335z" />
<glyph unicode="$" horiz-adv-x="767" d="M44 197q0 30 33 30q14 0 25 -16q69 -94 141 -125v599q-80 36 -128 110t-48 161t48 161t128 109v258q0 31 31 31t31 -31v-238q28 5 57 5t57 -5v238q0 31 31 31t31 -31v-258q38 -17 84 -58q57 -48 57 -80q0 -30 -33 -30q-14 0 -25 15q-45 61 -83 84v-455q108 -38 175 -132 t67 -209q0 -114 -67 -208.5t-175 -132.5v-253q0 -31 -31 -31t-31 31v237q-28 -4 -57 -4t-57 4v-237q0 -31 -31 -31t-31 31v253q-135 47 -195 161q-4 9 -4 16zM129 956q0 -133 114 -201v402q-114 -68 -114 -201zM305 67q28 -5 57 -5t57 5v588q-39 2 -114 11v-599zM305 729 q38 -2 114 -11v464q-28 7 -57 7t-57 -7v-453zM481 86q82 36 131 111t49 164t-49 164.5t-131 110.5v-550z" />
<glyph unicode="%" horiz-adv-x="1339" d="M44 31q0 12 10 22l1189 1189q10 10 21 10q32 0 32 -32q0 -12 -10 -22l-1189 -1189q-10 -10 -21 -10q-32 0 -32 32zM45 956q0 121 86.5 208t208.5 87t208.5 -87t86.5 -208q0 -122 -86.5 -208.5t-208.5 -86.5t-208.5 86.5t-86.5 208.5zM107 956q0 -96 68 -165t165 -69 q96 0 164.5 69t68.5 165t-68.5 164.5t-164.5 68.5q-97 0 -165 -68.5t-68 -164.5zM706 295q0 122 86 208.5t209 86.5q121 0 208 -86.5t87 -208.5q0 -121 -87 -208t-208 -87q-123 0 -209 87t-86 208zM767 295q0 -96 68.5 -164.5t165.5 -68.5q96 0 164.5 68.5t68.5 164.5 t-68.5 165t-164.5 69q-97 0 -165.5 -69t-68.5 -165z" />
<glyph unicode="&#x26;" horiz-adv-x="1031" d="M44 361q0 106 57.5 195t153.5 134q-80 78 -104 116q-41 65 -41 150q0 121 87 208t208 87q122 0 208.5 -87t86.5 -208q0 -122 -86.5 -208.5t-208.5 -86.5q-17 0 -33 -2l606 -606q9 -10 9 -22q0 -32 -31 -32q-13 0 -22 10l-201 201q-44 -95 -133 -152.5t-195 -57.5 q-150 0 -255.5 105.5t-105.5 255.5zM106 361q0 -123 88 -211t211 -88q94 0 171.5 53.5t109.5 141.5l-385 385q-88 -32 -141.5 -109.5t-53.5 -171.5zM172 956q0 -75 46 -138q16 -23 101 -106q42 10 86 10q96 0 165 69t69 165t-69 164.5t-165 68.5t-164.5 -68.5t-68.5 -164.5z " />
<glyph unicode="'" horiz-adv-x="282" d="M44 889q0 9 61.5 165.5t72.5 176.5t28 20q33 0 33 -30q0 -9 -62 -166t-73.5 -176.5t-26.5 -19.5q-33 0 -33 30z" />
<glyph unicode="(" horiz-adv-x="362" d="M44 427q0 360 154 690q63 133 87 133q33 0 33 -30q0 -8 -4 -16q-208 -393 -208 -777t207 -776q5 -9 5 -17q0 -30 -33 -30q-24 0 -87 134q-154 329 -154 689z" />
<glyph unicode=")" horiz-adv-x="362" d="M44 -366q0 8 4 17q208 392 208 776t-208 777q-4 8 -4 16q0 30 33 30q24 0 87 -133q154 -330 154 -690t-154 -689q-63 -134 -87 -134q-33 0 -33 30z" />
<glyph unicode="*" horiz-adv-x="942" d="M44 824q0 31 31 30l341 -7l-247 235q-10 9 -10 22q0 31 32 31q12 0 22 -9l235 -247l-8 341q0 31 31 31q32 0 31 -31l-8 -341l235 247q10 9 22 9q32 0 32 -31q0 -13 -10 -22l-246 -235l341 7q30 1 30 -30q0 -32 -30 -31l-341 8l246 -235q10 -10 10 -23q0 -31 -32 -31 q-12 0 -22 9l-235 247l8 -341q1 -31 -31 -31q-31 0 -31 31l8 341l-235 -247q-10 -9 -22 -9q-32 0 -32 31q0 13 10 23l247 235l-341 -8q-31 -1 -31 31z" />
<glyph unicode="+" horiz-adv-x="942" d="M44 526q0 31 31 31h365v365q0 31 31 31t31 -31v-365h366q30 0 30 -31t-30 -31l-366 1v-367q0 -29 -31 -29t-31 29v367l-365 -1q-31 0 -31 31z" />
<glyph unicode="," horiz-adv-x="266" d="M44 -250q0 10 10 22q107 130 107 259q0 31 31 31t31 -31q0 -82 -33 -165q-35 -88 -93 -138q-11 -10 -21 -10q-32 0 -32 32z" />
<glyph unicode="-" horiz-adv-x="546" d="M44 427q0 31 31 31h396q31 0 31 -31t-31 -31h-396q-31 0 -31 31z" />
<glyph unicode="." horiz-adv-x="218" d="M44 65q0 63 65 63t65 -63q0 -26 -19 -45.5t-46 -19.5q-26 0 -45.5 19.5t-19.5 45.5z" />
<glyph unicode="/" horiz-adv-x="943" d="M44 -367q0 17 669 1346l92 185q12 23 35 70q11 17 27 17q32 0 32 -30q0 -18 -668 -1346l-93 -185q-11 -24 -35 -71q-11 -16 -26 -16q-33 0 -33 30z" />
<glyph unicode="0" horiz-adv-x="804" d="M56 378q0 -170 96 -274q97 -104 254 -104h3q157 0 253 104q97 104 97 274v293q0 170 -97 274q-96 104 -253 104h-3q-157 0 -254 -104q-96 -104 -96 -274v-293zM107 378v293q0 147 82 237q83 90 217 90h3q134 0 217 -90q82 -90 82 -237v-293q0 -147 -82 -237 q-83 -90 -217 -90h-3q-134 0 -217 90q-82 90 -82 237z" />
<glyph unicode="1" horiz-adv-x="341" d="M133 26q0 -11 8 -18q7 -8 18 -8q10 0 18 8q7 7 7 18v1005q0 11 -7 18q-8 8 -18 8q-11 0 -18 -8q-8 -7 -8 -18v-1005z" />
<glyph unicode="2" horiz-adv-x="784" d="M87 196q0 -81 58 -138q57 -58 138 -58h366q10 0 18 7q7 8 7 18q0 11 -7 18q-8 8 -18 8h-366q-60 0 -102 43q-43 42 -43 102q0 75 70 125q43 30 164 77q159 63 222 114q106 88 106 231q0 138 -98 222q-97 85 -256 85h-215q-11 0 -18 -8q-7 -7 -7 -18q0 -10 7 -18 q7 -7 18 -7h215q121 0 204 -57q99 -69 99 -199q0 -121 -93 -195q-56 -45 -203 -102q-132 -52 -182 -90q-84 -63 -84 -160z" />
<glyph unicode="3" horiz-adv-x="783" d="M111 25q0 -10 7 -18q8 -7 18 -7h193q146 0 250 104q104 103 104 249q0 103 -55 189q-53 84 -142 128q55 22 90 72q34 50 34 111q0 82 -57 140q-58 58 -140 58h-277q-10 0 -18 -8q-7 -7 -7 -18q0 -10 7 -18q8 -7 18 -7h277q61 0 104 -43q42 -43 42 -104q0 -60 -42 -103 q-43 -43 -104 -43h-277q-10 0 -18 -7q-7 -8 -7 -18q0 -11 7 -18q8 -8 18 -8h193q125 0 214 -89q89 -88 89 -214q0 -125 -89 -213q-89 -89 -214 -89h-193q-10 0 -18 -8q-7 -7 -7 -18z" />
<glyph unicode="4" horiz-adv-x="719" d="M82 635q0 -122 87 -209t209 -87h3q75 0 141 36q63 35 104 95v-445q0 -10 7 -18q8 -7 18 -7q11 0 18 7q8 8 8 18v996q0 10 -8 18q-7 7 -18 7q-10 0 -18 -7q-7 -8 -7 -18v-386q0 -101 -72 -173t-173 -72h-3q-101 0 -173 72t-72 173v386q0 10 -8 18q-7 7 -18 7q-10 0 -18 -7 q-7 -8 -7 -18v-386z" />
<glyph unicode="5" horiz-adv-x="762" d="M79 852q0 -81 57 -138q58 -58 139 -58h63q125 0 213 -89q89 -88 89 -214q0 -125 -89 -213q-88 -89 -213 -89h-193q-11 0 -18 -8q-8 -7 -8 -18q0 -10 8 -18q7 -7 18 -7h193q146 0 249 104q104 103 104 249q0 147 -104 250q-103 104 -249 104h-63q-60 0 -103 42 q-42 43 -42 103t42 103q43 42 103 42h365q10 0 18 8q7 7 7 18q0 10 -7 18q-8 7 -18 7h-365q-81 0 -139 -57q-57 -58 -57 -139z" />
<glyph unicode="6" horiz-adv-x="693" d="M46 297q0 -123 87 -210t210 -87h3q123 0 210 87t87 210v117q0 123 -87 210t-210 87h-102l124 302q4 10 0 20t-14 14t-19 0q-10 -4 -14 -14l-238 -581q-37 -88 -37 -155zM97 297q0 57 33 136l94 227h122q102 0 174 -72t72 -174v-117q0 -102 -72 -174t-174 -72h-3 q-102 0 -174 72t-72 174z" />
<glyph unicode="7" horiz-adv-x="653" d="M54 1025q0 -11 7 -18q8 -7 18 -7h243q73 0 133 -38q60 -37 88 -100q25 -54 11 -126q-9 -44 -46 -140l-229 -561q-4 -10 0 -19q4 -10 14 -14q5 -2 10 -2q17 0 23 16l230 562q40 104 49 154q15 84 -16 151q-34 76 -107 122q-72 45 -160 45h-243q-10 0 -18 -7q-7 -7 -7 -18z " />
<glyph unicode="8" horiz-adv-x="796" d="M90 296q0 -122 87 -209t209 -87h3q122 0 209 87t87 209v124q0 82 -42 152q-40 68 -110 107q55 21 89 68q34 49 34 109q0 79 -56 135q-55 56 -134 56h-157q-78 0 -134 -56t-56 -135q0 -60 34 -109q34 -47 89 -68q-69 -39 -110 -107q-42 -70 -42 -152v-124zM141 296v124 q0 102 72 174t173 72h3q101 0 173 -72t72 -174v-124q0 -101 -72 -173t-173 -72h-3q-101 0 -173 72t-72 173zM170 856q0 58 41 99t98 41h157q57 0 98 -41t41 -99q0 -57 -41 -98t-98 -41h-157q-57 0 -98 41t-41 98z" />
<glyph unicode="9" horiz-adv-x="712" d="M66 636q0 -123 87 -211q88 -87 211 -87h101l-123 -303q-4 -10 0 -19q4 -10 13 -14q5 -2 10 -2q17 0 24 16l238 582q37 88 37 155q0 123 -87 211q-87 87 -211 87h-2q-123 0 -211 -87q-87 -88 -87 -211v-117zM117 636v117q0 102 72 174q73 73 175 73h2q102 0 175 -73 q72 -72 72 -174q0 -57 -33 -136l-94 -228h-122q-102 0 -175 72q-72 73 -72 175z" />
<glyph unicode=":" horiz-adv-x="218" d="M47 63q0 25 18 43t43 18t43 -18t18 -43q0 -26 -18 -43.5t-43 -17.5t-43 17.5t-18 43.5zM47 792q0 25 18 43t43 18t43 -18t18 -43q0 -26 -18 -43.5t-43 -17.5t-43 17.5t-18 43.5z" />
<glyph unicode=";" horiz-adv-x="318" d="M44 -250q0 10 10 22q107 130 107 259q0 31 31 31t31 -31q0 -82 -33 -165q-35 -88 -93 -138q-11 -10 -21 -10q-32 0 -32 32zM108 778q0 31 22 53t53 22q30 0 52 -22t22 -53t-22 -52.5t-52 -21.5q-31 0 -53 21.5t-22 52.5z" />
<glyph unicode="&#x3c;" horiz-adv-x="942" d="M44 526q0 17 22 31q63 35 424 214q367 183 378 183q30 0 30 -33q0 -17 -16 -26l-738 -368l738 -369q16 -9 16 -27q0 -32 -30 -32q-11 0 -379 183q-364 180 -423 214q-22 13 -22 30z" />
<glyph unicode="=" horiz-adv-x="942" d="M44 394q0 31 31 31h793q30 0 30 -31t-30 -31h-793q-31 0 -31 31zM44 658q0 31 31 31h793q30 0 30 -31t-30 -31h-793q-31 0 -31 31z" />
<glyph unicode="&#x3e;" horiz-adv-x="942" d="M44 131q0 18 17 27l738 369l-738 368q-17 9 -17 26q0 33 30 33q11 0 379 -183q361 -180 423 -214q22 -14 22 -31t-22 -30q-62 -34 -423 -214q-368 -183 -379 -183q-30 0 -30 32z" />
<glyph unicode="?" horiz-adv-x="776" d="M88 62q0 25 18 43t44 18q25 0 43 -18t18 -43q0 -26 -18 -44t-43 -18q-26 0 -44 18t-18 44zM113 1228q0 -10 8 -18q7 -7 18 -7h244q122 0 204 -57q99 -68 99 -198q0 -121 -93 -196q-56 -44 -203 -102q-132 -52 -182 -89q-84 -64 -84 -161v-170q0 -11 8 -18q7 -8 18 -8 q10 0 18 8q7 7 7 18v170q0 75 70 125q43 30 164 78q159 62 222 114q106 87 106 231q0 137 -97 222q-98 84 -257 84h-244q-11 0 -18 -8q-8 -7 -8 -18z" />
<glyph unicode="@" horiz-adv-x="1147" d="M61 520q0 -215 152 -368q153 -152 368 -152h5q138 0 258 68q9 5 11 15q3 10 -2 19t-15 12t-19 -3q-108 -61 -233 -61h-5q-194 0 -332 138t-138 332v214q0 194 138 332t332 138h5q194 0 332 -138t138 -332v-3v-382q0 -30 -21 -51q-22 -22 -52 -22t-52 22q-21 21 -21 51 v240q0 3 -1 6v97q0 134 -95 229t-229 95h-3q-134 0 -229 -95q-96 -95 -96 -229v-130q0 -134 96 -229q95 -95 229 -95h3q86 0 160 42q72 41 115 112v-43q0 -50 36 -86t87 -36t87 36t36 86v385v2q-1 215 -154 366q-152 152 -366 152h-5q-215 0 -368 -153q-152 -152 -152 -367 v-214zM306 562v130q0 114 81 195t195 81h3q114 0 195 -81t81 -195v-97q-1 -3 -1 -6v-41q-5 -110 -85 -186t-190 -76h-3q-114 0 -195 81t-81 195z" />
<glyph unicode="A" horiz-adv-x="1132" d="M152 41q-2 -5 -2 -10q0 -6 3 -13q5 -12 17 -16q5 -2 11 -2q21 0 28 20l143 386h534l142 -386q7 -20 28 -20q6 0 11 2q12 4 17 16q3 6 3 13q0 5 -2 10q-438 1188 -439 1188q-7 19 -27 19q-21 0 -28 -19zM374 467l245 663l244 -663h-489z" />
<glyph unicode="B" horiz-adv-x="898" d="M101 30q0 -12 9 -21t21 -9h481q97 0 166 69t69 166q0 90 -60 157q-59 66 -147 77q95 56 150 151q57 97 57 210q0 175 -124 299t-299 124h-293q-12 0 -21 -9t-9 -21v-1193zM162 61v349h450q72 0 123 -51q51 -52 51 -124t-51 -123t-123 -51h-450zM162 471v721h262 q150 0 256 -106t106 -256q0 -148 -106 -254q-106 -105 -256 -105h-262z" />
<glyph unicode="C" horiz-adv-x="962" d="M203 612q0 -253 179 -433q180 -179 433 -179h68q12 0 21 9t9 21q0 13 -9 22t-21 9h-68q-228 0 -390 161q-161 162 -161 390v29q0 228 161 390q162 161 390 161h68q12 0 21 9t9 21q0 13 -9 22q-8 9 -21 9h-68q-253 0 -433 -180q-179 -179 -179 -432v-29z" />
<glyph unicode="D" horiz-adv-x="1028" d="M223 30q0 -12 9 -21t21 -9h117q253 0 432 179t179 432v30q0 253 -179 432t-432 179h-117q-12 0 -21 -9t-9 -21v-1192zM284 61v1130h86q228 0 389 -161q161 -162 161 -389v-30q0 -227 -161 -389q-161 -161 -389 -161h-86z" />
<glyph unicode="E" horiz-adv-x="898" d="M161 30q0 -12 9 -21t21 -9h5h628q12 0 21 9t9 22q0 12 -9 21t-21 9h-602v347h477q13 0 22 9q9 8 9 21t-9 22q-9 8 -22 8h-477v724h602q12 0 21 9t9 21q0 13 -9 22t-21 9h-633q-12 0 -21 -9t-9 -22v-1192z" />
<glyph unicode="F" horiz-adv-x="854" d="M165 30q0 -12 9 -21t21 -9q13 0 22 9t9 21v377h477q12 0 21 9t9 22q0 12 -9 21t-21 9h-477v723h601q13 0 22 9t9 21q0 13 -9 22t-22 9h-632q-12 0 -21 -9t-9 -22v-1191z" />
<glyph unicode="G" horiz-adv-x="1006" d="M124 610q0 -252 179 -431t431 -179h151q12 0 21 9t9 21v407q0 12 -9 21t-21 9h-241q-12 0 -21 -9t-9 -21q0 -13 9 -22q9 -8 21 -8h210v-346h-120q-227 0 -388 161t-161 388v29q0 227 161 388t388 161h151q12 0 21 9t9 22q0 12 -9 21t-21 9h-151q-252 0 -431 -179 t-179 -431v-29z" />
<glyph unicode="H" horiz-adv-x="1030" d="M163 30q0 -12 9 -21t21 -9q13 0 22 9t9 21v377h615v-377q0 -12 9 -21t21 -9q13 0 22 9t9 21v1189q0 13 -9 22q-9 8 -22 8q-12 0 -21 -8q-9 -9 -9 -22v-752h-615v752q0 13 -9 22q-9 8 -22 8q-12 0 -21 -8q-9 -9 -9 -22v-1189z" />
<glyph unicode="I" d="M132 30q0 -12 9 -21t21 -9q13 0 22 9t9 21v1192q0 13 -9 21q-9 9 -22 9q-12 0 -21 -9q-9 -8 -9 -21v-1192z" />
<glyph unicode="J" horiz-adv-x="805" d="M99 258q0 -106 76 -182t182 -76h57q107 0 183 76q76 75 76 182v963q0 12 -9 21t-22 9q-12 0 -21 -9t-9 -21v-963q0 -81 -58 -139t-140 -58h-57q-81 0 -139 58t-58 139v24q0 12 -9 21t-22 9q-12 0 -21 -9t-9 -21v-24z" />
<glyph unicode="K" horiz-adv-x="796" d="M115 30q0 -12 9 -21t21 -9q13 0 22 9q8 9 8 21v375h170q149 -5 250 -115q96 -103 96 -242v-16q-1 -13 8 -22q8 -9 21 -10h1q12 0 21 9q9 8 9 20v17q0 125 -69 230q-72 110 -194 160q122 49 194 158q69 106 69 230v17v376q0 13 -9 21q-8 9 -21 9t-21 -9q-9 -8 -9 -21v-377 v-14q0 -140 -96 -245q-101 -109 -249 -115h-171v751q0 13 -8 21q-9 9 -22 9q-12 0 -21 -9q-9 -8 -9 -21v-1187z" />
<glyph unicode="L" horiz-adv-x="698" d="M89 30q0 -12 9 -21t21 -9h501q13 0 22 9t9 21q0 13 -9 22t-22 9h-470v1158q0 13 -9 22t-22 9q-12 0 -21 -9t-9 -22v-1189z" />
<glyph unicode="M" horiz-adv-x="1010" d="M143 30q0 -12 9 -21t21 -9q13 0 22 9q8 9 8 21v1056l326 -663l1 -1q0 -1 1 -3l2 -2l2 -2q2 -3 2 -2l2 -2q2 -1 3 -2q2 -1 1 0l2 -1q1 0 3 -1q1 0 2 -1h3h3h3h3q2 1 3 1t3 1h1q0 1 1 1q2 1 3 2q2 1 2 2q1 0 3 2l2 2l1 2q1 1 2 3t0 1l326 663v-1056q0 -12 9 -21t21 -9 q13 0 22 9t9 21v1186q0 24 -24 29q-5 1 -9 1q-16 0 -25 -17l-356 -725l-356 725q-8 17 -24 17q-4 0 -10 -1q-23 -5 -23 -29v-1186z" />
<glyph unicode="N" horiz-adv-x="1051" d="M172 30q0 -12 9 -21t21 -9q13 0 22 9t9 21v1077l630 -1092q9 -15 26 -15q4 0 8 1q22 6 22 29v1190q0 13 -9 22q-8 8 -21 8t-21 -8q-9 -9 -9 -22v-1077l-630 1092q-9 15 -25 15q-5 0 -10 -1q-22 -6 -22 -29v-1190z" />
<glyph unicode="O" horiz-adv-x="1046" d="M163 450q0 -202 115 -326t302 -124h4q187 0 302 124t115 326v350q0 202 -115 327q-115 124 -302 124h-4q-187 0 -302 -124q-115 -125 -115 -327v-350zM224 450v350q0 175 98 283q98 107 258 107h4q160 0 258 -107q98 -108 98 -283v-350q0 -174 -98 -282 q-98 -107 -258 -107h-4q-160 0 -258 107q-98 108 -98 282z" />
<glyph unicode="P" horiz-adv-x="956" d="M135 30q0 -12 9 -21t21 -9q13 0 22 9q8 9 8 21v376h296q174 0 298 123q123 124 123 298q0 173 -123 297q-124 123 -298 123h-326q-12 0 -21 -9t-9 -21v-1187zM195 466v721h296q149 0 255 -106t106 -254q0 -149 -106 -255t-255 -106h-296z" />
<glyph unicode="Q" horiz-adv-x="1036" d="M152 451q0 -202 115 -327q115 -124 303 -124h3q175 0 289 111l74 -99q9 -12 25 -12q10 0 18 6q10 8 12 20q1 13 -6 23l-82 108q88 119 88 294v350q0 203 -115 327t-303 124h-3q-188 0 -303 -124t-115 -327v-350zM213 451v350q0 175 98 283q99 108 259 108h3 q160 0 259 -108q98 -108 98 -283v-350q0 -175 -98 -283q-99 -107 -259 -107h-3q-160 0 -259 107q-98 108 -98 283z" />
<glyph unicode="R" horiz-adv-x="950" d="M132 30q0 -12 9 -21t21 -9q13 0 22 9q8 9 8 21v376h247l297 -394q9 -12 24 -12q10 0 18 6q10 8 12 20q1 12 -6 22l-270 359q166 10 280 131q115 121 115 289q0 173 -123 297q-124 123 -298 123h-326q-12 0 -21 -9t-9 -21v-1187zM192 466v721h296q149 0 255 -106t106 -254 q0 -149 -106 -255t-255 -106h-296z" />
<glyph unicode="S" horiz-adv-x="838" d="M55 828q0 -174 124 -298q123 -123 297 -123h75q72 0 122 -51q51 -51 51 -122q0 -72 -51 -123q-50 -50 -122 -50h-435q-12 0 -21 -9t-9 -22q0 -12 9 -21t21 -9h435q97 0 165 69q69 68 69 165q0 96 -69 165q-68 68 -165 68h-75q-149 0 -255 106q-105 106 -105 255t105 255 q106 106 255 106h230q13 0 22 9q8 9 8 21q0 13 -8 22q-9 8 -22 8h-230q-174 0 -297 -123q-124 -124 -124 -298z" />
<glyph unicode="T" horiz-adv-x="797" d="M53 1222q0 -13 9 -22q9 -8 21 -8h309v-1162q0 -12 8 -21q9 -9 22 -9q12 0 21 9t9 21v1162h308q13 0 22 8q9 9 9 22q0 12 -9 21t-22 9h-677q-12 0 -21 -9t-9 -21z" />
<glyph unicode="U" horiz-adv-x="892" d="M85 422q0 -216 114 -328q96 -94 244 -94h3q148 0 244 94q114 112 114 328v794q0 12 -9 21t-21 9q-13 0 -21 -9q-9 -9 -9 -21v-794q0 -170 -79 -266t-219 -96h-3q-140 0 -219 96t-79 266v794q0 12 -8 21q-9 9 -22 9q-12 0 -21 -9t-9 -21v-794z" />
<glyph unicode="V" horiz-adv-x="895" d="M53 1205l392 -1184q7 -21 28 -21q22 0 29 21l392 1184q2 5 2 9q0 7 -4 14q-5 11 -17 15q-5 2 -9 2q-7 0 -14 -4q-12 -5 -15 -17l-364 -1098l-363 1098q-4 12 -15 17q-7 4 -14 4q-5 0 -9 -2q-12 -4 -17 -15q-4 -7 -4 -14q0 -4 2 -9z" />
<glyph unicode="W" horiz-adv-x="1337" d="M52 1207l392 -1186q7 -21 29 -21t29 21l194 586l190 -586q7 -21 28 -21q22 0 29 21l393 1186q2 5 2 9q0 7 -4 14q-6 11 -17 15q-5 2 -10 2q-6 0 -13 -3q-12 -6 -16 -18l-363 -1099l-187 577l166 503q4 12 -1 23q-6 11 -18 15q-5 2 -10 2q-6 0 -13 -3q-11 -6 -15 -18 l-364 -1100l-364 1100q-4 12 -15 18q-6 3 -13 3q-5 0 -10 -2q-12 -4 -17 -15q-4 -7 -4 -14q0 -4 2 -9z" />
<glyph unicode="X" horiz-adv-x="797" d="M57 1204l314 -768l-161 -394q-5 -12 0 -23q5 -12 16 -17q6 -2 12 -2q20 0 28 19l138 337l138 -337q4 -11 16 -16q11 -5 23 0q12 4 16 16q5 12 1 23l-162 394l315 768q2 6 2.5 12t-2.5 11q-5 12 -17 17q-6 2 -11.5 2t-11.5 -2q-11 -5 -16 -17l-291 -711l-291 711 q-5 12 -17 17q-6 2 -11.5 2t-11.5 -2q-11 -5 -16 -17q-2 -6 -2 -11.5t2 -11.5z" />
<glyph unicode="Y" horiz-adv-x="743" d="M47 1204l317 -774v-400q0 -12 8 -21q9 -9 22 -9q12 0 21 9t9 21v400l317 774q3 6 3 12t-3 11q-5 12 -17 17q-6 2 -11.5 2t-11.5 -2q-11 -5 -16 -17l-291 -712l-291 712q-5 12 -17 17q-6 2 -11.5 2t-11.5 -2q-11 -5 -16 -17q-3 -5 -3 -11t3 -12z" />
<glyph unicode="Z" horiz-adv-x="604" d="M3 42q-2 -6 -2 -12q0 -9 5 -17q9 -13 25 -13h458q12 0 21 9t9 21q0 13 -9 22t-21 9h-412l481 1145q2 6 2 12q0 9 -5 16q-9 14 -25 14h-458q-12 0 -21 -9t-9 -21q0 -13 9 -22t21 -9h413z" />
<glyph unicode="[" horiz-adv-x="634" d="M132 -366v1586q0 31 31 31h396q31 0 31 -31t-31 -31h-365v-1524h365q31 0 31 -31q0 -30 -31 -30h-396q-31 0 -31 30z" />
<glyph unicode="\" horiz-adv-x="943" d="M44 1221q0 30 33 30q15 0 26 -17q43 -86 128 -255q668 -1329 668 -1346q0 -30 -32 -30q-16 0 -27 16q-43 87 -127 256q-669 1328 -669 1346z" />
<glyph unicode="]" horiz-adv-x="634" d="M44 -366q0 31 31 31h365v1524h-365q-31 0 -31 31t31 31h396q31 0 31 -31v-1586q0 -30 -31 -30h-396q-31 0 -31 30z" />
<glyph unicode="^" horiz-adv-x="679" d="M44 956q0 12 10 22l264 264q10 10 20 10q14 0 23 -10l264 -264q10 -10 10 -22q0 -32 -32 -32q-11 0 -21 10l-242 243l-243 -243q-10 -10 -21 -10q-32 0 -32 32z" />
<glyph unicode="_" horiz-adv-x="942" d="M44 31q0 31 31 31h793q30 0 30 -31t-30 -31h-793q-31 0 -31 31z" />
<glyph unicode="`" horiz-adv-x="282" d="M44 1221q0 30 33 30q15 0 26.5 -20t73.5 -176.5t62 -165.5q0 -30 -33 -30q-17 0 -28 19.5t-72.5 176.5t-61.5 166z" />
<glyph unicode="a" horiz-adv-x="871" d="M71 356q0 -147 105 -252q104 -104 251 -104h4q94 0 176 47q79 45 127 123v-144q0 -10 8 -18q7 -8 18 -8t19 8t8 18v473q0 147 -105 252q-104 104 -251 104h-4q-147 0 -251 -104q-105 -105 -105 -252v-143zM124 356v143q0 125 89 214t214 89h4q125 0 214 -89t89 -214v-143 q0 -125 -89 -214t-214 -89h-4q-125 0 -214 89t-89 214z" />
<glyph unicode="b" horiz-adv-x="837" d="M81 353q0 -146 103 -250q104 -103 250 -103h3q145 0 249 103q103 104 103 250v140q0 146 -103 249q-104 104 -249 104h-3q-94 0 -175 -47q-78 -45 -126 -122v547q0 11 -7 19q-8 7 -19 7t-18 -7q-8 -8 -8 -19v-871zM133 353v140q0 124 88 212t213 88h3q124 0 212 -88 t88 -212v-140q0 -125 -88 -213t-212 -88h-3q-125 0 -213 88t-88 213z" />
<glyph unicode="c" horiz-adv-x="689" d="M55 356q0 -147 104 -252q105 -104 252 -104h3q116 0 210 69q9 7 11 17q1 11 -5 20q-7 9 -18 11q-10 1 -19 -5q-80 -59 -179 -59h-3q-125 0 -214 89t-89 214v142q0 125 89 214t214 89h3q99 0 179 -59q9 -6 19 -5q11 2 18 11q6 9 5 20q-2 10 -11 17q-94 69 -210 69h-3 q-147 0 -252 -104q-104 -105 -104 -252v-142z" />
<glyph unicode="d" horiz-adv-x="900" d="M60 352q0 -146 103 -249t249 -103h3q146 0 249 103t103 249v871q0 10 -7 18q-8 8 -19 8t-18 -8q-8 -8 -8 -18v-547q-48 77 -126 122q-80 47 -174 47h-3q-146 0 -249 -104q-103 -103 -103 -248v-141zM112 352v141q0 124 88 211q88 88 212 88h3q124 0 212 -88 q88 -87 88 -211v-141q0 -124 -88 -212t-212 -88h-3q-124 0 -212 88t-88 212z" />
<glyph unicode="e" horiz-adv-x="764" d="M49 356q0 -147 105 -251q104 -105 251 -105h4q85 0 160 38t126 107q6 8 5 19q-2 11 -11 18q-8 6 -19 5q-11 -2 -18 -11q-91 -123 -243 -123h-4q-125 0 -214 89t-89 214v45h587q11 0 19 8t8 19v71q0 152 -95 254t-237 102h-3q-142 0 -237 -102t-95 -254v-143zM102 454v45 q0 132 79 218q79 85 200 85h3q121 0 200 -85q79 -86 79 -218v-45h-561z" />
<glyph unicode="f" horiz-adv-x="491" d="M46 26q0 -11 8 -18q7 -8 18 -8t19 8q7 7 7 18v371h239q10 0 18 7q8 8 8 19t-8 18q-8 8 -18 8h-239v449q0 124 88 212t213 88h62q11 0 19 8q8 7 8 18t-8 19q-8 7 -19 7h-62q-146 0 -250 -103q-103 -103 -103 -249v-872z" />
<glyph unicode="g" horiz-adv-x="810" d="M52 361q0 -146 103 -249q104 -104 249 -104h3q94 0 175 47q78 45 125 122v-221q0 -124 -88 -212t-212 -88h-3q-86 0 -159 46q-72 45 -110 123q-5 10 -15 13q-11 4 -20 -1q-10 -5 -14 -15q-3 -10 2 -20q44 -92 129 -145t187 -53h3q146 0 249 103q104 104 104 249v545 q0 146 -104 249q-103 104 -249 104h-3q-145 0 -249 -104q-103 -103 -103 -249v-140zM104 361v140q0 124 88 212t212 88h3q125 0 212 -88q88 -87 88 -212v-140q0 -124 -88 -212q-87 -88 -212 -88h-3q-124 0 -212 88t-88 212z" />
<glyph unicode="h" horiz-adv-x="913" d="M114 26q0 -11 8 -18q7 -8 18 -8t19 8q7 7 7 18v467q0 124 88 212t212 88h3q125 0 213 -88t88 -212v-467q0 -11 7 -18q8 -8 19 -8t18 8q8 7 8 18v467q0 146 -103 249q-104 104 -250 104h-3q-93 0 -174 -47q-78 -45 -126 -122v547q0 11 -7 18q-8 8 -19 8t-18 -8 q-8 -7 -8 -18v-1198z" />
<glyph unicode="i" d="M98 1092q0 -25 18 -43t43 -18t43 18t18 43q0 26 -18 44t-43 18t-43 -18t-18 -44zM133 26v801q0 11 7 19q8 7 19 7t19 -7q8 -8 8 -19v-801q0 -11 -8 -18q-8 -8 -19 -8t-19 8q-7 7 -7 18z" />
<glyph unicode="j" d="M-72 -381q7 -15 24 -15q5 0 10 2q105 47 167 143q63 97 63 211v867q0 27 -26 27q-27 0 -27 -27v-867q0 -99 -54 -182t-144 -124q-16 -8 -16 -21q0 -6 3 -14zM105 1090q0 25 18 43t43 18t42 -18q18 -18 18 -43t-18 -42q-17 -18 -42 -18t-43 18q-18 17 -18 42z" />
<glyph unicode="k" horiz-adv-x="696" d="M141 26q0 -11 8 -18q7 -8 18 -8t19 8q7 7 7 18v380h68q138 0 237 -98q98 -99 98 -237q0 -19 -3 -42q-1 -10 5 -19q7 -8 18 -10h3q23 0 26 23q3 26 3 48q0 126 -74 227q-72 100 -188 139q96 42 158 126q63 85 74 192q1 10 -6 19q-7 8 -18 9q-10 1 -19 -6q-8 -7 -9 -17 q-12 -116 -92 -199t-195 -100q-18 -2 -41 -3h-45v764q0 11 -7 18q-8 8 -19 8t-18 -8q-8 -7 -8 -18v-1196z" />
<glyph unicode="l" horiz-adv-x="391" d="M88 357q0 -115 63 -211q62 -97 167 -144q5 -2 10 -2q18 0 24 16q3 5 3 11q0 4 -2 9q-4 10 -14 14q-90 41 -144 124q-55 84 -55 183v868q0 11 -7 19q-8 7 -19 7t-18 -7q-8 -8 -8 -19v-868z" />
<glyph unicode="m" horiz-adv-x="1484" d="M113 26q0 -10 8 -18t18 -8q11 0 19 8t8 18v490q0 122 80 204q80 81 200 81h2q120 0 200 -81q80 -82 80 -204v-490q0 -10 8 -18t19 -8t18 8q8 8 8 18v490q0 122 80 204q80 81 200 81h3q119 0 199 -81q80 -82 80 -204v-490q0 -10 8 -18t19 -8t18 8q8 8 8 18v490 q0 145 -95 241q-95 97 -237 97h-3q-105 0 -188 -55q-81 -55 -118 -146q-38 92 -119 146q-83 55 -188 55h-2q-143 0 -238 -97q-95 -96 -95 -241v-490z" />
<glyph unicode="n" horiz-adv-x="940" d="M136 26q0 -11 8 -18q8 -8 18 -8q11 0 19 8t8 18v472q0 125 89 214q88 89 214 89h3q125 0 214 -89t89 -214v-472q0 -11 7 -18q8 -8 19 -8t19 8q7 7 7 18v472q0 147 -104 251t-251 104h-3q-147 0 -252 -104q-104 -104 -104 -251v-472z" />
<glyph unicode="o" horiz-adv-x="820" d="M60 355q0 -147 104 -251t251 -104h3q147 0 251 104t104 251v142q0 146 -104 250t-251 104h-3q-147 0 -251 -104t-104 -250v-142zM113 355v142q0 125 88 213q89 89 214 89h3q125 0 213 -89q89 -88 89 -213v-142q0 -125 -89 -214q-88 -88 -213 -88h-3q-125 0 -214 88 q-88 89 -88 214z" />
<glyph unicode="p" horiz-adv-x="857" d="M98 -370q0 -11 8 -18q7 -8 18 -8t19 8q7 7 7 18v546q48 -77 126 -122q81 -46 174 -46h3q146 0 249 103t103 249v140q0 146 -103 249t-249 103h-3q-146 0 -249 -103t-103 -249v-870zM150 360v140q0 124 88 212t212 88h3q124 0 212 -88t88 -212v-140q0 -124 -88 -212 t-212 -88h-3q-124 0 -212 88t-88 212z" />
<glyph unicode="q" horiz-adv-x="916" d="M79 360q0 -146 103 -249t249 -103h3q93 0 174 46q78 45 126 122v-546q0 -11 7 -18q8 -8 19 -8t18 8q8 7 8 18v870q0 146 -103 249t-249 103h-3q-146 0 -249 -103t-103 -249v-140zM131 360v140q0 124 88 212t212 88h3q124 0 212 -88t88 -212v-140q0 -124 -88 -212 t-212 -88h-3q-124 0 -212 88t-88 212z" />
<glyph unicode="r" horiz-adv-x="608" d="M125 26q0 -10 8 -18t18 -8q11 0 19 8t8 18v472q0 125 89 214t214 89h63q11 0 19 7q8 8 8 19t-8 19t-19 8h-63q-147 0 -252 -105q-104 -104 -104 -251v-472z" />
<glyph unicode="s" horiz-adv-x="747" d="M40 634q0 -91 64 -156q65 -64 156 -64h214q74 0 127 -53t53 -128q0 -74 -53 -127t-127 -53h-249q-74 0 -127 53q-8 8 -19 8t-19 -8q-7 -8 -7 -19t7 -19q69 -68 165 -68h249q96 0 165 68q68 69 68 165q0 97 -68 165q-69 69 -165 69h-214q-69 0 -118 49t-49 118t49 118 t118 49h227q70 0 118 -49q8 -8 19 -8t19 8t8 19t-8 18q-65 65 -156 65h-227q-91 0 -156 -65q-64 -64 -64 -155z" />
<glyph unicode="t" horiz-adv-x="530" d="M48 352q0 -145 103 -249q104 -103 249 -103h63q11 0 19 8q7 7 7 18t-7 19q-8 7 -19 7h-63q-124 0 -212 88t-88 212v453h238q22 0 22 22t-22 22h-238v374q0 11 -7 19q-8 8 -19 8t-18 -8q-8 -8 -8 -19v-871z" />
<glyph unicode="u" horiz-adv-x="877" d="M75 356q0 -147 104 -252q105 -104 252 -104h3q147 0 251 104q104 105 104 252v471q0 11 -7 19q-8 7 -19 7t-19 -7q-7 -8 -7 -19v-471q0 -126 -89 -214q-89 -89 -214 -89h-3q-126 0 -214 89q-89 88 -89 214v471q0 11 -8 19q-8 7 -19 7t-18 -7q-8 -8 -8 -19v-471z" />
<glyph unicode="v" horiz-adv-x="807" d="M54 820l329 -803q7 -17 25 -17q17 0 24 17l329 803q2 5 2 10t-2 10q-5 10 -15 15q-4 2 -9 2l-11 -3q-10 -4 -15 -14l-303 -743l-304 743q-5 10 -15 14q-6 3 -11 3l-9 -2q-10 -5 -15 -15q-2 -5 -2 -10t2 -10z" />
<glyph unicode="w" horiz-adv-x="1278" d="M50 816l327 -800q7 -16 25 -16t25 16l214 526l215 -526q7 -16 25 -16t25 16l327 800q2 6 2 11t-2 10q-5 10 -15 14q-5 2 -10 2l-10 -2q-10 -4 -14 -15l-303 -739l-211 515l84 204q4 11 0 21t-15 14q-5 2 -10 2l-10 -2q-10 -4 -14 -15l-88 -214l-215 -525l-303 739 q-4 11 -14 15q-5 2 -10 2l-10 -2q-10 -4 -15 -14q-2 -5 -2 -10t2 -11z" />
<glyph unicode="x" horiz-adv-x="754" d="M58 5q7 -5 16 -5q13 0 21 10l284 372l284 -372q8 -10 21 -10q9 0 16 5q9 7 10 18v5q0 8 -5 15l-293 383l293 384q5 6 5 14v5q-1 11 -10 18q-7 5 -15 5h-5q-11 -1 -17 -10l-284 -372l-284 372q-7 9 -18 10h-5q-8 0 -14 -5q-9 -7 -11 -18v-3q0 -9 6 -16l292 -384l-292 -383 q-6 -8 -6 -17q0 -12 11 -21z" />
<glyph unicode="y" horiz-adv-x="929" d="M92 358q0 -145 103 -248t248 -103h3q93 0 174 46q78 45 125 122v-220q0 -124 -87 -211q-88 -88 -212 -88h-3q-92 0 -168 51q-66 45 -101 117q-4 10 -15 13q-10 4 -19 -1q-10 -5 -14 -15q-3 -10 1 -20q42 -84 119 -137q89 -60 197 -60h3q146 0 249 103t103 248v866 q0 11 -8 19q-8 7 -19 7q-10 0 -18 -7q-8 -8 -8 -19v-463q0 -124 -87 -211q-88 -88 -212 -88h-3q-123 0 -211 88q-88 87 -88 211v463q0 11 -7 19q-8 7 -19 7t-18 -7q-8 -8 -8 -19v-463z" />
<glyph unicode="z" horiz-adv-x="748" d="M41 827q0 -11 7 -19q8 -8 19 -8h557l-578 -757q-6 -8 -6 -16q0 -6 3 -12q8 -15 24 -15h611q11 0 18 8q8 8 8 19t-8 18q-7 8 -18 8h-557l578 757q6 8 6 16q0 6 -3 12q-8 15 -24 15h-611q-11 0 -19 -8q-7 -7 -7 -18z" />
<glyph unicode="{" horiz-adv-x="546" d="M44 427q0 31 31 31q69 0 118 49.5t49 117.5v397q0 94 67.5 161.5t161.5 67.5q31 0 31 -31t-31 -31q-68 0 -117.5 -49t-49.5 -118v-397q0 -132 -115 -198q115 -66 115 -198v-396q0 -69 49.5 -118.5t117.5 -49.5q31 0 31 -31q0 -30 -31 -30q-94 0 -161.5 67t-67.5 162v396 q0 69 -49 118t-118 49q-31 0 -31 31z" />
<glyph unicode="|" horiz-adv-x="295" d="M132 -366v1586q0 31 31 31t31 -31v-1586q0 -30 -31 -30t-31 30z" />
<glyph unicode="}" horiz-adv-x="546" d="M44 -366q0 31 31 31q69 0 118 49.5t49 118.5v396q0 132 115 198q-115 66 -115 198v397q0 69 -49 118t-118 49q-31 0 -31 31t31 31q94 0 161.5 -67.5t67.5 -161.5v-397q0 -68 49.5 -117.5t117.5 -49.5q31 0 31 -31t-31 -31q-68 0 -117.5 -49t-49.5 -118v-396 q0 -95 -67.5 -162t-161.5 -67q-31 0 -31 30z" />
<glyph unicode="~" horiz-adv-x="679" d="M44 426q0 11 10 28q42 70 153 70q65 0 143 -66t121 -66q63 0 93.5 33t37.5 33q33 0 33 -30q0 -10 -11 -27q-42 -71 -153 -71q-64 0 -142.5 66t-121.5 66q-62 0 -92.5 -33t-38.5 -33q-32 0 -32 30z" />
<glyph unicode="&#xa1;" d="M98 699q0 -25 18 -43t43 -18t43 18t18 43q0 26 -18 44t-43 18t-43 -18t-18 -44zM133 -367v801q0 11 7 19q8 7 19 7t19 -7q8 -8 8 -19v-801q0 -11 -8 -18q-8 -8 -19 -8t-19 8q-7 7 -7 18z" />
<glyph unicode="&#xa2;" horiz-adv-x="827" d="M44 427q0 142 86 256.5t222 154.5v206q0 31 31 31t31 -31v-193q28 3 57 3t57 -3v193q0 31 31 31t31 -31v-206q47 -14 112 -51q81 -47 81 -79q0 -31 -32 -31q-9 0 -22 9q-43 35 -65 50q-36 24 -74 37v-692q56 19 139 87q12 10 21 10q32 0 32 -32q0 -31 -80 -78 q-65 -38 -112 -51v-206q0 -31 -31 -31t-31 31v193q-28 -4 -57 -4t-57 4v-193q0 -31 -31 -31t-31 31v206q-136 39 -222 153.5t-86 256.5zM106 427q0 -116 68 -211.5t178 -134.5v692q-110 -38 -178 -134t-68 -212zM414 66q28 -4 57 -4t57 4v722q-28 5 -57 5t-57 -5v-722z" />
<glyph unicode="&#xa3;" horiz-adv-x="943" d="M44 31q0 31 32 31q69 0 118 49t49 118v300h-167q-31 0 -31 30q0 31 31 31h167v203h-167q-31 0 -31 31q0 30 31 30h167v168q0 94 67.5 161.5t161.5 67.5q105 0 162 -67q10 -12 10 -22q0 -31 -32 -31q-2 0 -48.5 29t-91.5 29q-69 0 -118 -49t-49 -118v-168h167q31 0 31 -30 q0 -31 -31 -31h-167v-203h167q31 0 31 -31q0 -30 -31 -30h-167v-300q0 -100 -72 -167h635q31 0 31 -31t-31 -31h-792q-32 0 -32 31z" />
<glyph unicode="&#xa4;" horiz-adv-x="943" d="M44 31q0 14 105 117q-104 120 -104 279q0 160 104 279q-105 104 -105 118q0 31 32 31q14 0 116 -105q121 104 280 104t279 -104q103 105 117 105q31 0 31 -31q0 -14 -105 -118q105 -119 105 -279q0 -159 -105 -279q105 -103 105 -117q0 -32 -31 -32q-14 0 -117 105 q-120 -104 -279 -104t-280 104q-102 -105 -116 -105q-32 0 -32 32zM107 427q0 -151 107 -258t258 -107t258.5 107t107.5 258q0 152 -107.5 259t-258.5 107t-258 -107t-107 -259z" />
<glyph unicode="&#xa5;" horiz-adv-x="1031" d="M44 1220q0 32 32 32q14 0 23 -14l439 -562l438 562q10 14 24 14q31 0 31 -32q0 -10 -7 -19l-423 -545h201q31 0 31 -31q0 -30 -31 -30h-233v-203h233q31 0 31 -31t-31 -31h-233v-299q0 -31 -31 -31t-31 31v299h-233q-31 0 -31 31t31 31h233v203h-233q-31 0 -31 30 q0 31 31 31h201l-424 545q-7 9 -7 19z" />
<glyph unicode="&#xa6;" d="M132 295q0 31 31 31t31 -31v-661q0 -30 -31 -30t-31 30v661zM132 559v661q0 31 31 31t31 -31v-661q0 -30 -31 -30t-31 30z" />
<glyph unicode="&#xa7;" horiz-adv-x="678" d="M44 427q0 183 164 264q-164 82 -164 265q0 121 87 208t208 87q170 0 256 -149q5 -8 5 -16q0 -30 -33 -30q-11 0 -39 35q-37 44 -67 64q-52 34 -122 34q-96 0 -164.5 -68.5t-68.5 -164.5t68.5 -165t164.5 -69q122 0 208.5 -86.5t86.5 -208.5q0 -182 -164 -264 q164 -82 164 -264q0 -122 -86.5 -208.5t-208.5 -86.5q-170 0 -256 148q-5 8 -5 16q0 30 33 30q11 0 40 -34q37 -44 67 -64q52 -35 121 -35q96 0 165 69t69 165t-69 164.5t-165 68.5q-121 0 -208 87t-87 208zM106 427q0 -96 68.5 -164.5t164.5 -68.5t165 68.5t69 164.5 t-69 165t-165 69t-164.5 -69t-68.5 -165z" />
<glyph unicode="&#xa8;" horiz-adv-x="612" d="M44 1121q0 64 63 64q65 0 65 -64t-65 -64q-63 0 -63 64zM440 1121q0 64 64 64t64 -64t-64 -64t-64 64z" />
<glyph unicode="&#xa9;" horiz-adv-x="1338" d="M44 625q0 259 183 442.5t442 183.5t442.5 -183.5t183.5 -442.5t-183.5 -442t-442.5 -183t-442 183t-183 442zM87 625q0 -240 171 -410t413 -170q243 0 414 170t171 410q0 241 -171 411t-414 170q-242 0 -413 -170t-171 -411zM418 566q0 -122 87 -209t209 -87h3 q96 0 174 58q8 5 9 14t-4 16q-5 8 -14 9t-17 -4q-66 -49 -148 -49h-3q-104 0 -178 74t-74 178v119q0 104 74 178t178 74h3q82 0 148 -49q8 -6 17 -4q9 1 14 8q5 8 4 17t-9 14q-78 58 -174 58h-3q-122 0 -209 -87t-87 -209v-119z" />
<glyph unicode="&#xaa;" horiz-adv-x="570" d="M73 786q0 -94 67 -161q66 -66 160 -66h2q60 0 112 30q51 28 81 78v-91q0 -7 5 -12t12 -5t12 5t5 12v300q0 94 -67 161q-66 66 -160 66h-2q-94 0 -160 -66q-67 -67 -67 -161v-90zM76 420q0 8 6 14q5 5 13 5h412q8 0 13 -5q6 -6 6 -14q0 -7 -6 -13q-5 -5 -13 -5h-412 q-8 0 -13 5q-6 6 -6 13zM107 786v90q0 80 56 137q57 57 137 57h2q80 0 137 -57q56 -57 56 -137v-90q0 -80 -56 -137q-57 -57 -137 -57h-2q-80 0 -137 57q-56 57 -56 137z" />
<glyph unicode="&#xab;" horiz-adv-x="679" d="M44 427q0 6 202 411q9 16 26 16q33 0 33 -30q0 -8 -195 -397q195 -389 195 -397q0 -30 -33 -30q-17 0 -26 17q-202 404 -202 410zM374 427q0 6 202 411q9 16 26 16q33 0 33 -30q0 -8 -195 -397q195 -388 195 -397q0 -30 -33 -30q-17 0 -26 17q-202 404 -202 410z" />
<glyph unicode="&#xac;" horiz-adv-x="942" d="M44 427q0 31 31 31h705q30 0 30 -31v-396q0 -31 -30 -31q-31 0 -31 31v365h-674q-31 0 -31 31z" />
<glyph unicode="&#xad;" horiz-adv-x="546" d="M44 427q0 31 31 31h396q31 0 31 -31t-31 -31h-396q-31 0 -31 31z" />
<glyph unicode="&#xae;" horiz-adv-x="1335" d="M44 625q0 259 183 442.5t442 183.5t442.5 -183.5t183.5 -442.5t-183.5 -442t-442.5 -183t-442 183t-183 442zM87 625q0 -240 171 -410t413 -170q243 0 414 170t171 410q0 241 -171 411t-414 170q-242 0 -413 -170t-171 -411zM453 235q0 -9 6 -14q6 -6 14 -6t14 6 q6 5 6 14v243h167l200 -255q6 -8 16 -8q7 0 13 4q6 5 8 13q1 8 -4 14l-183 232q112 7 189 85q78 78 78 186q0 113 -83 193q-83 79 -201 79h-220q-8 0 -14 -5q-6 -6 -6 -14v-767zM493 517v465h200q101 0 172 -68t71 -165q0 -96 -71 -164t-172 -68h-200z" />
<glyph unicode="&#xaf;" horiz-adv-x="942" d="M44 1616q0 31 31 31h793q30 0 30 -31q0 -30 -30 -30h-793q-31 0 -31 30z" />
<glyph unicode="&#xb0;" horiz-adv-x="678" d="M44 956q0 121 87 208t208 87q122 0 208.5 -87t86.5 -208q0 -122 -86.5 -208.5t-208.5 -86.5q-121 0 -208 86.5t-87 208.5zM106 956q0 -96 68.5 -165t164.5 -69t165 69t69 165t-69 164.5t-165 68.5t-164.5 -68.5t-68.5 -164.5z" />
<glyph unicode="&#xb1;" horiz-adv-x="942" d="M44 31q0 31 31 31h793q30 0 30 -31t-30 -31h-793q-31 0 -31 31zM44 691q0 31 31 31h365v366q0 31 31 31t31 -31v-366h366q30 0 30 -31q0 -30 -30 -30h-366v-366q0 -31 -31 -31t-31 31v366h-365q-31 0 -31 30z" />
<glyph unicode="&#xb2;" horiz-adv-x="507" d="M40 636q0 -58 41 -100q42 -41 100 -41h262q7 0 13 5q5 6 5 13q0 8 -5 13q-6 6 -13 6h-262q-43 0 -74 30q-30 31 -30 74q0 53 50 89q30 22 117 56q114 45 159 82q77 62 77 165q0 99 -70 160q-70 60 -184 60h-154q-8 0 -13 -5q-6 -6 -6 -13q0 -8 6 -13q5 -6 13 -6h154 q87 0 146 -40q71 -49 71 -143q0 -86 -67 -140q-40 -32 -145 -73q-95 -37 -131 -64q-60 -46 -60 -115z" />
<glyph unicode="&#xb3;" horiz-adv-x="489" d="M35 516q0 -8 5 -13q6 -5 14 -5h137q105 0 180 74q74 75 74 180q0 73 -40 134q-37 61 -101 92q39 16 64 52t25 80q0 58 -41 100q-42 41 -101 41h-197q-8 0 -14 -5q-5 -6 -5 -14q0 -7 5 -12q6 -5 14 -5h197q44 0 74 -31q32 -31 32 -74t-32 -75q-30 -31 -74 -31h-197 q-8 0 -14 -5q-5 -5 -5 -12q0 -8 5 -14q6 -5 14 -5h137q90 0 154 -63q64 -64 64 -153q0 -90 -64 -153q-64 -64 -154 -64h-137q-8 0 -14 -5q-5 -6 -5 -14z" />
<glyph unicode="&#xb4;" horiz-adv-x="414" d="M44 1089q0 16 18 26q28 18 144 75q123 62 134 62q31 0 31 -33q0 -16 -18 -26q-28 -18 -144 -75q-124 -62 -135 -62q-30 0 -30 33z" />
<glyph unicode="&#xb5;" horiz-adv-x="854" d="M132 -366v1190q0 30 31 30t31 -30v-529q0 -96 68.5 -164.5t164.5 -68.5t165 68.5t69 164.5v529q0 30 30 30q31 0 31 -30v-793q0 -31 -31 -31q-30 0 -30 31v84q-89 -115 -234 -115q-144 0 -233 115v-481q0 -30 -31 -30t-31 30z" />
<glyph unicode="&#xb6;" horiz-adv-x="898" d="M44 956q0 121 87 208t208 87h396q31 0 31 -31v-1189q0 -31 -31 -31q-30 0 -30 31v1158h-335v-1158q0 -31 -31 -31t-31 31v631q-112 12 -188 96.5t-76 197.5zM106 956q0 -87 58 -153.5t144 -78.5v463q-86 -11 -144 -77.5t-58 -153.5z" />
<glyph unicode="&#xb7;" horiz-adv-x="942" d="M406 522q0 26 18 44t44 18q25 0 43 -18t18 -44q0 -25 -18 -43t-43 -18q-26 0 -44 18t-18 43z" />
<glyph unicode="&#xb8;" horiz-adv-x="520" d="M44 -265q0 30 33 30q5 0 54.5 -50t115.5 -50q69 0 118.5 49.5t49.5 118.5q0 68 -49.5 117.5t-118.5 49.5q-30 0 -30 31t30 31q95 0 162.5 -67.5t67.5 -161.5q0 -95 -67.5 -162t-162.5 -67q-135 0 -199 115q-4 8 -4 16z" />
<glyph unicode="&#xb9;" horiz-adv-x="149" d="M69 514q0 -8 5 -13q6 -5 13 -5q8 0 13 5q6 5 6 13v719q0 8 -6 13q-5 6 -13 6q-7 0 -13 -6q-5 -5 -5 -13v-719z" />
<glyph unicode="&#xba;" horiz-adv-x="744" d="M41 955q0 -137 97 -233q97 -97 233 -97h3q137 0 234 97q97 96 97 233v132q0 137 -97 234q-97 96 -234 96h-3q-136 0 -233 -96q-97 -97 -97 -234v-132zM43 424q0 11 8 19t19 8h601q11 0 19 -8t8 -19t-8 -19t-19 -8h-601q-11 0 -19 8t-8 19zM90 955v132q0 116 83 199 q82 82 198 82h3q117 0 199 -82q83 -83 83 -199v-132q0 -116 -83 -199q-82 -82 -199 -82h-3q-116 0 -198 82q-83 83 -83 199z" />
<glyph unicode="&#xbb;" horiz-adv-x="679" d="M44 30q0 9 195 397q-195 389 -195 397q0 30 33 30q17 0 26 -16q202 -405 202 -411t-202 -410q-9 -17 -26 -17q-33 0 -33 30zM374 30q0 9 195 397q-195 389 -195 397q0 30 33 30q18 0 26 -16q202 -405 202 -411t-202 -410q-8 -17 -26 -17q-33 0 -33 30z" />
<glyph unicode="&#xbc;" horiz-adv-x="1502" d="M85 5q12 -15 30 3l1200 1210q18 19 6 34q-11 16 -29 -2l-1200 -1211q-18 -18 -7 -34zM400 514v719q0 8 5 13q5 6 13 6t13 -6q5 -5 5 -13v-719q0 -8 -5 -13t-13 -5t-13 5t-5 13zM930 404q0 -105 74 -179t179 -74h2q64 0 120 30q55 30 89 81v-380q0 -8 7 -15q6 -6 15 -6 t16 6q6 7 6 15v852q0 9 -6 15q-7 6 -16 6t-15 -6q-7 -6 -7 -15v-330q0 -87 -61 -148q-61 -62 -148 -62h-2q-87 0 -149 62q-61 61 -61 148v330q0 9 -6 15q-7 6 -16 6t-15 -6t-6 -15v-330z" />
<glyph unicode="&#xbd;" horiz-adv-x="1395" d="M85 5q12 -15 30 3l1200 1210q18 19 6 34q-11 16 -29 -2l-1200 -1211q-18 -18 -7 -34zM400 514q0 -8 5 -13t13 -5t13 5t5 13v719q0 8 -5 13q-5 6 -13 6t-13 -6q-5 -5 -5 -13v-719zM910 141q0 -58 41 -100q42 -41 100 -41h262q8 0 13 5q5 6 5 13q0 8 -5 13q-5 6 -13 6h-262 q-43 0 -74 30q-30 31 -30 74q0 53 50 89q30 22 117 56q114 44 160 82q76 62 76 165q0 99 -70 159q-70 61 -184 61h-154q-8 0 -13 -5q-6 -6 -6 -13q0 -8 6 -13q5 -6 13 -6h154q87 0 146 -40q71 -49 71 -143q0 -86 -67 -140q-40 -32 -145 -73q-95 -37 -131 -64 q-60 -46 -60 -115z" />
<glyph unicode="&#xbe;" horiz-adv-x="1573" d="M132 378q0 -9 6 -15q7 -6 16 -6h163q125 0 214 88q88 88 88 213q0 87 -47 160q-45 72 -121 109q47 19 76 61q30 43 30 95q0 69 -49 119q-49 49 -119 49h-235q-9 0 -16 -6q-6 -7 -6 -16t6 -15q7 -6 16 -6h235q52 0 88 -37q37 -36 37 -88q0 -51 -37 -88q-36 -37 -88 -37 h-235q-9 0 -16 -6q-6 -6 -6 -15t6 -16q7 -6 16 -6h163q107 0 183 -75q76 -76 76 -182q0 -107 -76 -182q-76 -76 -183 -76h-163q-9 0 -16 -6q-6 -7 -6 -16zM208 5q11 -15 29 3l1200 1210q18 19 6 34q-11 16 -29 -2l-1200 -1211q-18 -18 -6 -34zM1018 404q0 -105 74 -179 t179 -74h2q64 0 121 30q54 30 89 81v-380q0 -8 6 -15q6 -6 15 -6t16 6q6 7 6 15v852q0 9 -6 15q-7 6 -16 6t-15 -6t-6 -15v-330q0 -87 -62 -148q-61 -62 -148 -62h-2q-87 0 -148 62q-62 61 -62 148v330q0 9 -6 15t-15 6t-16 -6q-6 -6 -6 -15v-330z" />
<glyph unicode="&#xbf;" horiz-adv-x="732" d="M46 -96q0 -137 98 -222q97 -84 256 -84h244q11 0 18 7q8 8 8 18q0 11 -8 18q-7 8 -18 8h-244q-121 0 -204 57q-99 68 -99 198q0 121 93 196q56 44 203 102q132 51 182 89q84 64 84 160v171q0 11 -7 18q-8 8 -18 8q-11 0 -18 -8q-8 -7 -8 -18v-171q0 -74 -70 -124 q-43 -30 -164 -78q-159 -62 -222 -114q-106 -87 -106 -231zM572 790q0 26 18 44t44 18q25 0 43 -18t18 -44q0 -25 -18 -43t-43 -18q-26 0 -44 18t-18 43z" />
<glyph unicode="&#xc0;" horiz-adv-x="1043" d="M62 41q-4 -12 1 -23q5 -12 17 -16q5 -2 11 -2q21 0 28 20l143 386h534l142 -386q7 -20 28 -20q6 0 11 2q12 4 17 16q5 11 1 23q-438 1188 -439 1188q-7 19 -27 19q-21 0 -28 -19zM284 467l245 663l244 -663h-489zM363 1615q0 33 30 33q12 0 134 -62q117 -57 145 -74 q17 -11 17 -27q0 -32 -29 -32q-13 0 -135 61q-117 57 -145 75q-17 11 -17 26z" />
<glyph unicode="&#xc1;" horiz-adv-x="1043" d="M62 41q-4 -12 1 -23q5 -12 17 -16q5 -2 11 -2q21 0 28 20l143 386h534l142 -386q7 -20 28 -20q6 0 11 2q12 4 17 16q5 11 1 23q-438 1188 -439 1188q-7 19 -27 19q-21 0 -28 -19zM284 467l245 663l244 -663h-489zM363 1485q0 16 17 27q28 17 145 74q122 62 135 62 q29 0 29 -33q0 -15 -17 -26q-28 -18 -145 -75q-122 -61 -134 -61q-30 0 -30 32z" />
<glyph unicode="&#xc2;" horiz-adv-x="1041" d="M60 41q-4 -12 1 -23q5 -12 17 -16q5 -2 11 -2q21 0 28 20l143 386h534l142 -386q7 -20 28 -20q6 0 11 2q12 4 17 16q5 11 1 23q-438 1188 -439 1188q-7 19 -27 19q-21 0 -28 -19zM282 467l245 663l244 -663h-489zM297 1485q0 15 14 25l196 130q11 8 20 8q8 0 19 -8 l196 -130q14 -10 14 -25q0 -32 -31 -32q-9 0 -17 6l-181 120l-181 -120q-9 -6 -18 -6q-31 0 -31 32z" />
<glyph unicode="&#xc3;" horiz-adv-x="1038" d="M57 41q-4 -12 1 -23q5 -12 17 -16q5 -2 11 -2q21 0 28 20l143 386h534l142 -386q7 -20 28 -20q6 0 11 2q12 4 17 16q5 11 1 23q-438 1188 -439 1188q-7 19 -27 19q-21 0 -28 -19zM228 1549q0 11 11 28q41 70 153 70q64 0 142 -66t121 -66q63 0 93.5 33t38.5 33 q32 0 32 -30q0 -10 -10 -27q-42 -71 -154 -71q-64 0 -142 66.5t-121 66.5q-63 0 -93.5 -33.5t-37.5 -33.5q-33 0 -33 30zM279 467l245 663l244 -663h-489z" />
<glyph unicode="&#xc4;" horiz-adv-x="1038" d="M57 41q-4 -12 1 -23q5 -12 17 -16q5 -2 11 -2q21 0 28 20l143 386h534l142 -386q7 -20 28 -20q6 0 11 2q12 4 17 16q5 11 1 23q-438 1188 -439 1188q-7 19 -27 19q-21 0 -28 -19zM279 467l245 663l244 -663h-489zM306 1518q0 63 63 63q64 0 64 -63q0 -65 -64 -65 q-63 0 -63 65zM612 1518q0 63 63 63q65 0 65 -63q0 -65 -65 -65q-63 0 -63 65z" />
<glyph unicode="&#xc5;" horiz-adv-x="1035" d="M54 41q-4 -12 1 -23q5 -12 17 -16q5 -2 11 -2q21 0 28 20l143 386h534l142 -386q7 -20 28 -20q6 0 11 2q12 4 17 16q5 11 1 23q-438 1188 -439 1188q-7 19 -27 19q-21 0 -28 -19zM276 467l245 663l244 -663h-489zM364 1494q0 64 46 110t111 46q64 0 110 -46t46 -110 t-46 -108.5t-110 -44.5q-65 0 -111 44.5t-46 108.5zM415 1494q0 -43 31 -71.5t75 -28.5q43 0 74 28.5t31 71.5q0 42 -31.5 72.5t-73.5 30.5q-43 0 -74.5 -30.5t-31.5 -72.5z" />
<glyph unicode="&#xc6;" horiz-adv-x="1604" d="M44 30q0 10 5 18l793 1189q10 15 26 14h631q31 0 31 -31t-31 -31h-600v-728h468q31 0 31 -31q0 -30 -31 -30h-468v-338h600q31 0 31 -31t-31 -31h-631q-30 0 -30 31v365h-482l-255 -382q-9 -14 -24 -14q-33 0 -33 30zM397 458h441v660z" />
<glyph unicode="&#xc7;" horiz-adv-x="1165" d="M398 596q0 -223 143 -395q141 -170 355 -214q91 -50 91 -153q0 -73 -52 -124q-51 -51 -123 -51q-73 0 -124 51q-52 51 -52 124q0 27 -26 27q-27 0 -27 -27q0 -95 67 -162t162 -67q94 0 161 67t67 162q0 79 -50 142q16 -1 29 -1h70q12 0 21 9t9 22t-9 22t-21 9h-70 q-231 0 -395 164t-164 395v30q0 232 164 396t395 164h70q30 0 30 31q0 12 -9 21t-21 9h-70q-257 0 -439 -182t-182 -439v-30z" />
<glyph unicode="&#xc8;" horiz-adv-x="898" d="M161 30q0 -12 9 -21t21 -9h5h628q12 0 21 9t9 22q0 12 -9 21t-21 9h-602v347h477q13 0 22 9q9 8 9 21t-9 22q-9 8 -22 8h-477v724h602q12 0 21 9t9 21q0 13 -9 22t-21 9h-633q-12 0 -21 -9t-9 -22v-1192zM330 1615q0 33 30 33q12 0 135 -62q115 -57 144 -74 q17 -11 17 -27q0 -32 -30 -32q-11 0 -135 61q-115 57 -144 75q-17 11 -17 26z" />
<glyph unicode="&#xc9;" horiz-adv-x="898" d="M161 30q0 -12 9 -21t21 -9h5h628q12 0 21 9t9 22q0 12 -9 21t-21 9h-602v347h477q13 0 22 9q9 8 9 21t-9 22q-9 8 -22 8h-477v724h602q12 0 21 9t9 21q0 13 -9 22t-21 9h-633q-12 0 -21 -9t-9 -22v-1192zM330 1485q0 16 17 27q29 17 144 74q124 62 135 62q30 0 30 -33 q0 -15 -17 -26q-29 -18 -144 -75q-123 -61 -135 -61q-30 0 -30 32z" />
<glyph unicode="&#xca;" horiz-adv-x="898" d="M161 30q0 -12 9 -21t21 -9h5h628q12 0 21 9t9 22q0 12 -9 21t-21 9h-602v347h477q13 0 22 9q9 8 9 21t-9 22q-9 8 -22 8h-477v724h602q12 0 21 9t9 21q0 13 -9 22t-21 9h-633q-12 0 -21 -9t-9 -22v-1192zM264 1485q0 15 14 25l196 130q10 8 19 8t20 -8l195 -130 q14 -10 14 -25q0 -32 -30 -32q-9 0 -17 6l-182 120l-181 -120q-8 -6 -18 -6q-30 0 -30 32z" />
<glyph unicode="&#xcb;" horiz-adv-x="898" d="M161 30q0 -12 9 -21t21 -9h5h628q12 0 21 9t9 22q0 12 -9 21t-21 9h-602v347h477q13 0 22 9q9 8 9 21t-9 22q-9 8 -22 8h-477v724h602q12 0 21 9t9 21q0 13 -9 22t-21 9h-633q-12 0 -21 -9t-9 -22v-1192zM232 1518q0 63 63 63q64 0 64 -63q0 -65 -64 -65q-63 0 -63 65z M628 1518q0 63 63 63q65 0 65 -63q0 -65 -65 -65q-63 0 -63 65z" />
<glyph unicode="&#xcc;" d="M0 1615q0 33 30 33q11 0 135 -62q115 -57 144 -74q17 -11 17 -27q0 -32 -30 -32q-11 0 -135 61q-115 57 -144 75q-17 11 -17 26zM129 31v1189q0 31 31 31t31 -31v-1189q0 -31 -31 -31t-31 31z" />
<glyph unicode="&#xcd;" d="M0 1485q0 16 17 27q29 17 144 74q124 62 135 62q30 0 30 -33q0 -15 -17 -26q-29 -18 -144 -75q-124 -61 -135 -61q-30 0 -30 32zM129 31v1189q0 31 31 31t31 -31v-1189q0 -31 -31 -31t-31 31z" />
<glyph unicode="&#xce;" d="M-66 1485q0 15 14 25l196 130q10 8 19 8t19 -8l196 -130q14 -10 14 -25q0 -32 -30 -32q-10 0 -18 6l-181 120l-181 -120q-8 -6 -18 -6q-30 0 -30 32zM132 31v1189q0 31 31 31t31 -31v-1189q0 -31 -31 -31t-31 31z" />
<glyph unicode="&#xcf;" d="M-98 1518q0 63 63 63q64 0 64 -63q0 -65 -64 -65q-63 0 -63 65zM132 31v1189q0 31 31 31t31 -31v-1189q0 -31 -31 -31t-31 31zM298 1518q0 63 63 63q64 0 64 -63q0 -65 -64 -65q-63 0 -63 65z" />
<glyph unicode="&#xd0;" horiz-adv-x="1294" d="M0 625q0 31 31 31h167v564q0 31 31 31h396q259 0 442.5 -183.5t183.5 -442.5t-183.5 -442t-442.5 -183h-396q-31 0 -31 31v564h-167q-31 0 -31 30zM260 62h365q234 0 399 165t165 398q0 234 -165 399t-399 165h-365v-533h167q31 0 31 -31q0 -30 -31 -30h-167v-533z" />
<glyph unicode="&#xd1;" horiz-adv-x="993" d="M114 30q0 -12 9 -21t21 -9q13 0 22 9t9 21v1077l630 -1092q9 -15 26 -15q4 0 8 1q22 6 22 29v1190q0 13 -9 22q-8 8 -21 8t-21 -8q-9 -9 -9 -22v-1077l-630 1092q-12 20 -35 14q-22 -6 -22 -29v-1190zM192 1549q0 11 11 28q42 70 153 70q64 0 142 -66t122 -66q62 0 93 33 t38 33q32 0 32 -30q0 -10 -9 -27q-43 -71 -154 -71q-65 0 -143 66.5t-121 66.5q-63 0 -93.5 -33.5t-37.5 -33.5q-33 0 -33 30z" />
<glyph unicode="&#xd2;" horiz-adv-x="1034" d="M127 450q0 -202 115 -326t302 -124h4q187 0 302 124t115 326v350q0 202 -115 327q-115 124 -302 124h-4q-187 0 -302 -124q-115 -125 -115 -327v-350zM188 450v350q0 175 98 283q98 107 258 107h4q160 0 258 -107q98 -108 98 -283v-350q0 -174 -98 -282 q-98 -107 -258 -107h-4q-160 0 -258 107q-98 108 -98 282zM370 1615q0 33 30 33q11 0 134 -62q116 -57 145 -74q17 -11 17 -27q0 -32 -30 -32q-12 0 -135 61q-116 57 -145 75q-16 11 -16 26z" />
<glyph unicode="&#xd3;" horiz-adv-x="1029" d="M122 450q0 -202 115 -326t302 -124h4q187 0 302 124t115 326v350q0 202 -115 327q-115 124 -302 124h-4q-187 0 -302 -124q-115 -125 -115 -327v-350zM183 450v350q0 175 98 283q98 107 258 107h4q160 0 258 -107q98 -108 98 -283v-350q0 -174 -98 -282 q-98 -107 -258 -107h-4q-160 0 -258 107q-98 108 -98 282zM365 1485q0 16 16 27q29 17 145 74q123 62 135 62q30 0 30 -33q0 -15 -17 -26q-29 -18 -145 -75q-123 -61 -134 -61q-30 0 -30 32z" />
<glyph unicode="&#xd4;" horiz-adv-x="1031" d="M124 450q0 -202 115 -326t302 -124h4q187 0 302 124t115 326v350q0 202 -115 327q-115 124 -302 124h-4q-187 0 -302 -124q-115 -125 -115 -327v-350zM185 450v350q0 175 98 283q98 107 258 107h4q160 0 258 -107q98 -108 98 -283v-350q0 -174 -98 -282 q-98 -107 -258 -107h-4q-160 0 -258 107q-98 108 -98 282zM307 1485q0 15 14 25l196 130q11 8 19 8q9 0 20 -8l195 -130q14 -10 14 -25q0 -32 -30 -32q-9 0 -17 6l-182 120l-181 -120q-8 -6 -18 -6q-30 0 -30 32z" />
<glyph unicode="&#xd5;" horiz-adv-x="1040" d="M133 450q0 -202 115 -326t302 -124h4q187 0 302 124t115 326v350q0 202 -115 327q-115 124 -302 124h-4q-187 0 -302 -124q-115 -125 -115 -327v-350zM194 450v350q0 175 98 283q98 107 258 107h4q160 0 258 -107q98 -108 98 -283v-350q0 -174 -98 -282 q-98 -107 -258 -107h-4q-160 0 -258 107q-98 108 -98 282zM257 1549q0 11 10 28q42 70 153 70q64 0 142.5 -66t121.5 -66q63 0 93 33t38 33q32 0 32 -30q0 -10 -10 -27q-42 -71 -153 -71q-64 0 -142.5 66.5t-121.5 66.5q-63 0 -93 -33.5t-38 -33.5q-32 0 -32 30z" />
<glyph unicode="&#xd6;" horiz-adv-x="1048" d="M141 450q0 -202 115 -326t302 -124h4q187 0 302 124t115 326v350q0 202 -115 327q-115 124 -302 124h-4q-187 0 -302 -124q-115 -125 -115 -327v-350zM202 450v350q0 175 98 283q98 107 258 107h4q160 0 258 -107q98 -108 98 -283v-350q0 -174 -98 -282 q-98 -107 -258 -107h-4q-160 0 -258 107q-98 108 -98 282zM295 1518q0 63 63 63q65 0 65 -63q0 -65 -65 -65q-63 0 -63 65zM691 1518q0 63 64 63t64 -63q0 -65 -64 -65t-64 65z" />
<glyph unicode="&#xd7;" horiz-adv-x="942" d="M159 147q0 12 10 22l259 258l-259 258q-10 10 -10 22q0 32 32 32q12 0 22 -10l258 -259l258 259q10 10 22 10q32 0 32 -32q0 -12 -10 -22l-259 -258l259 -258q10 -10 10 -22q0 -32 -32 -32q-12 0 -22 10l-258 259l-258 -259q-10 -10 -22 -10q-32 0 -32 32z" />
<glyph unicode="&#xd8;" horiz-adv-x="1089" d="M61 34q1 -13 12 -21q8 -7 19 -7q16 0 25 12l106 136q116 -154 327 -154h3q187 0 301 124q115 124 115 325v349q0 133 -54 237l121 154q8 11 6 24q-1 13 -12 21q-10 8 -23 6q-13 -1 -21 -12l-107 -135q-115 154 -326 154h-3q-187 0 -302 -124q-114 -124 -114 -325v-349 q0 -133 54 -238l-121 -153q-8 -11 -6 -24zM194 449v349q0 174 98 281t258 107h3q188 0 286 -144l-609 -777q-36 83 -36 184zM263 205l610 777q35 -83 35 -184v-349q0 -174 -97 -281q-98 -108 -258 -108h-3q-188 0 -287 145z" />
<glyph unicode="&#xd9;" horiz-adv-x="1030" d="M88 427v793q0 31 31 31t31 -31v-793q0 -151 107 -258t258 -107q152 0 259 107t107 258v793q0 31 31 31q30 0 30 -31v-793q0 -177 -125 -302t-302 -125t-302 125t-125 302zM352 1615q0 33 30 33q12 0 135 -62q115 -57 144 -74q17 -11 17 -27q0 -32 -30 -32q-11 0 -135 61 q-115 57 -144 75q-17 11 -17 26z" />
<glyph unicode="&#xda;" horiz-adv-x="1030" d="M88 427v793q0 31 31 31t31 -31v-793q0 -151 107 -258t258 -107q152 0 259 107t107 258v793q0 31 31 31q30 0 30 -31v-793q0 -177 -125 -302t-302 -125t-302 125t-125 302zM352 1485q0 16 17 27q29 17 144 74q124 62 135 62q30 0 30 -33q0 -15 -17 -26q-29 -18 -144 -75 q-123 -61 -135 -61q-30 0 -30 32z" />
<glyph unicode="&#xdb;" horiz-adv-x="1030" d="M88 427v793q0 31 31 31t31 -31v-793q0 -151 107 -258t258 -107q152 0 259 107t107 258v793q0 31 31 31q30 0 30 -31v-793q0 -177 -125 -302t-302 -125t-302 125t-125 302zM286 1485q0 15 14 25l196 130q10 8 19 8t20 -8l195 -130q14 -10 14 -25q0 -32 -30 -32q-9 0 -17 6 l-182 120l-181 -120q-8 -6 -18 -6q-30 0 -30 32z" />
<glyph unicode="&#xdc;" horiz-adv-x="1030" d="M88 427v793q0 31 31 31t31 -31v-793q0 -151 107 -258t258 -107q152 0 259 107t107 258v793q0 31 31 31q30 0 30 -31v-793q0 -177 -125 -302t-302 -125t-302 125t-125 302zM254 1518q0 63 63 63q64 0 64 -63q0 -65 -64 -65q-63 0 -63 65zM650 1518q0 63 63 63q65 0 65 -63 q0 -65 -65 -65q-63 0 -63 65z" />
<glyph unicode="&#xdd;" horiz-adv-x="1031" d="M44 1220q0 32 32 32q14 0 23 -14l439 -562l438 562q10 14 24 14q31 0 31 -32q0 -10 -7 -19l-455 -586v-584q0 -31 -31 -31t-31 31v584l-456 586q-7 9 -7 19zM374 1485q0 16 18 27q28 17 144 74q124 62 135 62q30 0 30 -33q0 -15 -17 -26q-29 -18 -145 -75 q-122 -61 -134 -61q-31 0 -31 32z" />
<glyph unicode="&#xde;" horiz-adv-x="1030" d="M132 31v1189q0 31 31 31t31 -31v-167h365q177 0 302 -125.5t125 -302.5t-125 -302t-302 -125h-365v-167q0 -31 -31 -31t-31 31zM194 260h365q152 0 259 107t107 258q0 152 -107 259t-259 107h-365v-731z" />
<glyph unicode="&#xdf;" horiz-adv-x="949" d="M132 31v935q0 118 83 201.5t201 83.5q107 0 182.5 -76t75.5 -182q0 -93 -43 -154q-4 -5 -82 -84q-44 -45 -44 -97q0 -60 42 -97t103 -37q107 0 181 -78t74 -184q0 -108 -77 -185t-185 -77q-177 0 -245 169q-2 5 -2 12q0 30 32 30q17 0 28 -21q5 -11 18 -35 q59 -93 169 -93q83 0 142 59t59 141q0 86 -62 143t-148 57q-79 0 -135 58.5t-56 137.5q0 85 84.5 161t84.5 174q0 81 -57 138.5t-139 57.5q-92 0 -157 -65t-65 -158v-935q0 -31 -31 -31t-31 31z" />
<glyph unicode="&#xe0;" horiz-adv-x="870" d="M79 355q0 -147 104 -251t251 -104h3q94 0 176 47q79 45 126 123v-144q0 -11 8 -18q8 -8 19 -8t19 8q7 7 7 18v471q0 147 -104 251t-251 104h-3q-147 0 -251 -104t-104 -251v-142zM132 355v142q0 125 88 214q89 88 214 88h3q125 0 214 -88q88 -89 88 -214v-142 q0 -125 -88 -214q-89 -88 -214 -88h-3q-125 0 -214 88q-88 89 -88 214zM277 1066q-4 11 0 22q5 11 16 15q11 5 22 0l301 -127q11 -4 16 -15q4 -11 -1 -22q-7 -18 -26 -18q-6 0 -11 2l-301 127q-11 4 -16 16z" />
<glyph unicode="&#xe1;" horiz-adv-x="865" d="M74 355q0 -147 104 -251t251 -104h3q94 0 176 47q79 45 126 123v-144q0 -11 8 -18q8 -8 19 -8t19 8q7 7 7 18v471q0 147 -104 251t-251 104h-3q-147 0 -251 -104t-104 -251v-142zM127 355v142q0 125 88 214q89 88 214 88h3q125 0 214 -88q88 -89 88 -214v-142 q0 -125 -88 -214q-89 -88 -214 -88h-3q-125 0 -214 88q-88 89 -88 214zM272 1069q-4 11 0 22q5 11 16 15l301 127q11 5 22 0q11 -4 15 -15q5 -11 1 -22q-5 -12 -16 -16l-301 -127q-5 -2 -11 -2q-19 0 -27 18z" />
<glyph unicode="&#xe2;" horiz-adv-x="881" d="M90 355q0 -147 104 -251t251 -104h3q94 0 176 47q79 45 126 123v-144q0 -11 8 -18q8 -8 19 -8t19 8q7 7 7 18v471q0 147 -104 251t-251 104h-3q-147 0 -251 -104t-104 -251v-142zM143 355v142q0 125 88 214q89 88 214 88h3q125 0 214 -88q88 -89 88 -214v-142 q0 -125 -88 -214q-89 -88 -214 -88h-3q-125 0 -214 88q-88 89 -88 214zM227 1089q0 15 14 24l196 131q10 8 19 8t19 -8l196 -131q14 -9 14 -24q0 -33 -30 -33q-10 0 -18 6l-181 121l-182 -121q-7 -6 -17 -6q-30 0 -30 33z" />
<glyph unicode="&#xe3;" horiz-adv-x="887" d="M95 355q0 -147 104 -251t251 -104h3q94 0 176 47q79 45 126 123v-144q0 -11 8 -18q8 -8 19 -8t19 8q7 7 7 18v471q0 147 -104 251t-251 104h-3q-147 0 -251 -104t-104 -251v-142zM148 355v142q0 125 88 214q89 88 214 88h3q125 0 214 -88q88 -89 88 -214v-142 q0 -125 -88 -214q-89 -88 -214 -88h-3q-125 0 -214 88q-88 89 -88 214zM166 1153q0 11 10 27q42 71 153 71q65 0 143 -66t121 -66q63 0 93.5 33t37.5 33q33 0 33 -30q0 -11 -11 -27q-42 -71 -153 -71q-64 0 -142.5 66t-121.5 66q-62 0 -92.5 -33t-38.5 -33q-32 0 -32 30z " />
<glyph unicode="&#xe4;" horiz-adv-x="876" d="M85 355q0 -147 104 -251t251 -104h3q94 0 176 47q79 45 126 123v-144q0 -11 8 -18q8 -8 19 -8t19 8q7 7 7 18v471q0 147 -104 251t-251 104h-3q-147 0 -251 -104t-104 -251v-142zM138 355v142q0 125 88 214q89 88 214 88h3q125 0 214 -88q88 -89 88 -214v-142 q0 -125 -88 -214q-89 -88 -214 -88h-3q-125 0 -214 88q-88 89 -88 214zM181 1121q0 64 64 64t64 -64t-64 -64t-64 64zM578 1121q0 64 63 64q64 0 64 -64t-64 -64q-63 0 -63 64z" />
<glyph unicode="&#xe5;" horiz-adv-x="870" d="M79 355q0 -147 104 -251t251 -104h3q94 0 176 47q79 45 126 123v-144q0 -11 8 -18q8 -8 19 -8t19 8q7 7 7 18v471q0 147 -104 251t-251 104h-3q-147 0 -251 -104t-104 -251v-142zM132 355v142q0 125 88 214q89 88 214 88h3q125 0 214 -88q88 -89 88 -214v-142 q0 -125 -88 -214q-89 -88 -214 -88h-3q-125 0 -214 88q-88 89 -88 214zM270 1120q0 64 46.5 109.5t110.5 45.5t110 -45.5t46 -109.5q0 -65 -46 -109.5t-110 -44.5t-110.5 44.5t-46.5 109.5zM317 1119q0 -48 32.5 -79.5t77.5 -31.5t77 31.5t32 79.5q0 47 -32 80.5t-77 33.5 t-77.5 -33.5t-32.5 -80.5z" />
<glyph unicode="&#xe6;" horiz-adv-x="1444" d="M63 357q0 -147 105 -252t252 -105h4q94 0 176 47q80 46 128 124v-144q0 -11 8 -19q7 -8 18 -8t19 8t8 19v148q48 -80 128 -127q82 -48 179 -48h3q85 0 160 38t127 107q6 9 5 20q-2 11 -11 17q-9 7 -20 5t-17 -10q-92 -124 -244 -124h-3q-126 0 -216 89q-89 90 -89 215v45 h589q11 0 19 8t8 19v71q0 153 -95 255q-96 102 -238 102h-3q-107 0 -191 -60q-82 -60 -118 -160q-41 98 -130 159q-90 61 -200 61h-4q-147 0 -252 -104q-105 -105 -105 -253v-143zM116 357v143q0 126 89 215q90 89 215 89h4q125 0 215 -89q89 -89 89 -215v-143 q0 -125 -89 -215q-90 -89 -215 -89h-4q-125 0 -215 89q-89 90 -89 215zM783 455v45q0 132 79 218t201 86h3q122 0 201 -86t79 -218v-45h-563z" />
<glyph unicode="&#xe7;" horiz-adv-x="737" d="M68 360q0 -145 103 -248q102 -104 247 -105q64 -10 106 -59q42 -50 42 -114q0 -72 -52 -124q-51 -51 -124 -51q-72 0 -124 51q-51 52 -51 124q0 11 -8 18q-7 7 -18 7q-10 0 -18 -7q-7 -7 -7 -18q0 -93 66 -160q67 -66 160 -66q94 0 160 66q66 67 66 160q0 118 -98 186 q63 17 115 56q9 6 11 17q1 10 -5 19q-7 9 -17 11q-11 1 -20 -5q-79 -58 -177 -58h-4q-124 0 -212 88t-88 212v142q0 124 88 212t212 88h4q98 0 177 -58q9 -6 20 -5q10 2 17 11q6 9 5 19q-2 11 -11 17q-93 69 -208 69h-4q-146 0 -249 -104q-104 -103 -104 -249v-142z" />
<glyph unicode="&#xe8;" horiz-adv-x="889" d="M111 356q0 -147 104 -252q105 -104 252 -104h3q178 0 285 144q7 9 5 20q-1 11 -10 17q-9 7 -20 5q-11 -1 -17 -10q-91 -123 -243 -123h-3q-126 0 -214 89q-89 88 -89 214v44h586q11 0 19 8q7 8 7 19v71q0 152 -94 254q-95 101 -237 101h-3q-141 0 -236 -101 q-95 -102 -95 -254v-142zM164 453v45q0 131 79 217q78 85 199 85h3q121 0 200 -85q79 -86 79 -217v-45h-560zM266 1189q-4 11 0 22q5 11 16 16t22 0l302 -127q11 -5 15 -16q5 -11 0 -22q-7 -18 -27 -18q-5 0 -11 3l-301 127q-11 4 -16 15z" />
<glyph unicode="&#xe9;" horiz-adv-x="889" d="M111 356q0 -147 104 -252q105 -104 252 -104h3q178 0 285 144q7 9 5 20q-1 11 -10 17q-9 7 -20 5q-11 -1 -17 -10q-91 -123 -243 -123h-3q-126 0 -214 89q-89 88 -89 214v44h586q11 0 19 8q7 8 7 19v71q0 152 -94 254q-95 101 -237 101h-3q-141 0 -236 -101 q-95 -102 -95 -254v-142zM164 453v45q0 131 79 217q78 85 199 85h3q121 0 200 -85q79 -86 79 -217v-45h-560zM266 1062q-4 11 0 22q5 11 16 16l301 127q11 5 22 0t16 -16t0 -22q-4 -11 -15 -15l-302 -127q-5 -3 -11 -3q-19 0 -27 18z" />
<glyph unicode="&#xea;" horiz-adv-x="889" d="M111 356q0 -147 104 -252q105 -104 252 -104h3q178 0 285 144q7 9 5 20q-1 11 -10 17q-9 7 -20 5q-11 -1 -17 -10q-91 -123 -243 -123h-3q-126 0 -214 89q-89 88 -89 214v44h586q11 0 19 8q7 8 7 19v71q0 152 -94 254q-95 101 -237 101h-3q-141 0 -236 -101 q-95 -102 -95 -254v-142zM164 453v45q0 131 79 217q78 85 199 85h3q121 0 200 -85q79 -86 79 -217v-45h-560zM215 1089q0 15 14 24l195 131q11 8 20 8t19 -8l196 -131q14 -9 14 -24q0 -33 -30 -33q-10 0 -18 6l-181 121l-182 -121q-8 -6 -17 -6q-30 0 -30 33z" />
<glyph unicode="&#xeb;" horiz-adv-x="889" d="M111 356q0 -147 104 -252q105 -104 252 -104h3q178 0 285 144q7 9 5 20q-1 11 -10 17q-9 7 -20 5q-11 -1 -17 -10q-91 -123 -243 -123h-3q-126 0 -214 89q-89 88 -89 214v44h586q11 0 19 8q7 8 7 19v71q0 152 -94 254q-95 101 -237 101h-3q-141 0 -236 -101 q-95 -102 -95 -254v-142zM164 453v45q0 131 79 217q78 85 199 85h3q121 0 200 -85q79 -86 79 -217v-45h-560zM189 1121q0 64 64 64t64 -64t-64 -64t-64 64zM586 1121q0 64 63 64q64 0 64 -64t-64 -64q-63 0 -63 64z" />
<glyph unicode="&#xec;" d="M-46 1189q-5 11 0 22q4 11 15 16t23 0l301 -127q11 -5 16 -16q4 -11 -1 -22q-7 -18 -26 -18q-6 0 -12 3l-301 127q-11 4 -15 15zM132 31v793q0 30 31 30t31 -30v-793q0 -31 -31 -31t-31 31z" />
<glyph unicode="&#xed;" d="M-41 1062q-5 11 0 22q4 11 15 16l301 127q12 5 23 0t15 -16q5 -11 1 -22q-5 -11 -16 -15l-301 -127q-6 -3 -12 -3q-19 0 -26 18zM132 31v793q0 30 31 30t31 -30v-793q0 -31 -31 -31t-31 31z" />
<glyph unicode="&#xee;" d="M-66 1089q0 15 14 24l196 131q10 8 19 8t19 -8l196 -131q14 -9 14 -24q0 -33 -30 -33q-10 0 -18 6l-181 121l-181 -121q-8 -6 -18 -6q-30 0 -30 33zM132 31v793q0 30 31 30t31 -30v-793q0 -31 -31 -31t-31 31z" />
<glyph unicode="&#xef;" d="M-98 1121q0 64 63 64q65 0 65 -64t-65 -64q-63 0 -63 64zM133 31v793q0 30 31 30q30 0 30 -30v-793q0 -31 -30 -31q-31 0 -31 31zM298 1121q0 64 63 64q64 0 64 -64t-64 -64q-63 0 -63 64z" />
<glyph unicode="&#xf0;" horiz-adv-x="942" d="M44 427q0 177 125 302t302 125q53 0 104 -12l-216 215h-218q-31 0 -31 31t31 31h157q-90 86 -90 101q0 32 32 32q14 0 145 -133h417q30 0 30 -31t-30 -31h-355l333 -332q118 -119 118 -298q0 -177 -125 -302t-302 -125t-302 125t-125 302zM106 427q0 -151 107 -258 t258 -107q152 0 259 107t107 258q0 152 -107 259t-259 107q-151 0 -258 -107t-107 -259z" />
<glyph unicode="&#xf1;" horiz-adv-x="912" d="M108 27q0 -11 8 -19t19 -8q10 0 18 8t8 19v472q0 125 89 214t214 89h3q126 0 215 -89t89 -214v-472q0 -11 8 -19q7 -8 18 -8t19 8t8 19v472q0 147 -105 252q-104 104 -252 104h-3q-147 0 -252 -104q-104 -105 -104 -252v-472zM170 1153q0 11 10 27q42 71 153 71 q66 0 143.5 -66t121.5 -66q62 0 93 33t38 33q32 0 32 -30q0 -11 -10 -27q-42 -71 -153 -71q-65 0 -143.5 66t-121.5 66q-61 0 -92 -33t-39 -33q-32 0 -32 30z" />
<glyph unicode="&#xf2;" horiz-adv-x="852" d="M67 357q0 -148 105 -252q104 -105 252 -105h3q147 0 252 105q105 104 105 252v142q0 148 -105 252q-105 105 -252 105h-3q-148 0 -252 -105q-105 -104 -105 -252v-142zM120 357v142q0 126 89 215t215 89h3q125 0 215 -89q89 -89 89 -215v-142q0 -126 -89 -215 q-90 -89 -215 -89h-3q-126 0 -215 89t-89 215zM248 1189q-5 11 0 22t16 16t22 0l301 -127q11 -5 16 -16q4 -11 0 -22q-8 -18 -27 -18q-6 0 -11 3l-302 127q-11 4 -15 15z" />
<glyph unicode="&#xf3;" horiz-adv-x="846" d="M64 357q0 -148 105 -252q104 -105 252 -105h3q147 0 252 105q105 104 105 252v142q0 148 -105 252q-105 105 -252 105h-3q-148 0 -252 -105q-105 -104 -105 -252v-142zM117 357v142q0 126 89 215t215 89h3q125 0 215 -89q89 -89 89 -215v-142q0 -126 -89 -215 q-90 -89 -215 -89h-3q-126 0 -215 89t-89 215zM245 1062q-5 11 0 22q4 11 15 16l302 127q11 5 22 0t16 -16q4 -11 0 -22q-5 -11 -16 -15l-301 -127q-5 -3 -11 -3q-20 0 -27 18z" />
<glyph unicode="&#xf4;" horiz-adv-x="846" d="M64 357q0 -148 105 -252q104 -105 252 -105h3q147 0 252 105q105 104 105 252v142q0 148 -105 252q-105 105 -252 105h-3q-148 0 -252 -105q-105 -104 -105 -252v-142zM117 357v142q0 126 89 215t215 89h3q125 0 215 -89q89 -89 89 -215v-142q0 -126 -89 -215 q-90 -89 -215 -89h-3q-126 0 -215 89t-89 215zM193 1089q0 15 14 24l196 131q11 8 19 8q9 0 20 -8l195 -131q14 -9 14 -24q0 -33 -30 -33q-9 0 -17 6l-182 121l-181 -121q-8 -6 -18 -6q-30 0 -30 33z" />
<glyph unicode="&#xf5;" horiz-adv-x="855" d="M70 357q0 -148 105 -252q104 -105 252 -105h3q147 0 252 105q105 104 105 252v142q0 148 -105 252q-105 105 -252 105h-3q-148 0 -252 -105q-105 -104 -105 -252v-142zM123 357v142q0 126 89 215t215 89h3q125 0 215 -89q89 -89 89 -215v-142q0 -126 -89 -215 q-90 -89 -215 -89h-3q-126 0 -215 89t-89 215zM133 1153q0 11 10 27q42 71 153 71q64 0 142.5 -66t121.5 -66q63 0 93.5 33t38.5 33q31 0 31 -30q0 -11 -9 -27q-43 -71 -154 -71q-64 0 -142.5 66t-121.5 66q-62 0 -92.5 -33t-38.5 -33q-32 0 -32 30z" />
<glyph unicode="&#xf6;" horiz-adv-x="860" d="M73 357q0 -148 105 -252q104 -105 252 -105h3q147 0 252 105q105 104 105 252v142q0 148 -105 252q-105 105 -252 105h-3q-148 0 -252 -105q-105 -104 -105 -252v-142zM126 357v142q0 126 89 215t215 89h3q125 0 215 -89q89 -89 89 -215v-142q0 -126 -89 -215 q-90 -89 -215 -89h-3q-126 0 -215 89t-89 215zM177 1121q0 64 63 64q64 0 64 -64t-64 -64q-63 0 -63 64zM573 1121q0 64 63 64q65 0 65 -64t-65 -64q-63 0 -63 64z" />
<glyph unicode="&#xf7;" horiz-adv-x="942" d="M176 526q0 31 31 31h528q31 0 31 -31t-31 -31h-528q-31 0 -31 31zM406 164q0 62 65 62t65 -62q0 -27 -19 -46t-46 -19q-26 0 -45.5 19t-19.5 46zM406 891q0 62 65 62t65 -62q0 -27 -19 -46.5t-46 -19.5q-26 0 -45.5 19.5t-19.5 46.5z" />
<glyph unicode="&#xf8;" horiz-adv-x="882" d="M82 37q0 -11 9 -18q8 -7 19 -6q11 0 18 9l70 80q104 -102 249 -102h3q147 0 251 104t104 251v142q0 117 -72 213l75 85q8 8 7 19t-9 18q-8 8 -19 7t-18 -9l-71 -80q-104 102 -248 102h-3q-147 0 -251 -105q-104 -104 -104 -250v-142q0 -118 71 -213l-75 -85q-7 -9 -6 -20 zM145 355v142q0 125 88 213q89 89 214 89h3q125 0 213 -89l-464 -528q-54 78 -54 173zM233 141l465 528q54 -78 54 -172v-142q0 -125 -89 -214q-88 -88 -213 -88h-3q-125 0 -214 88z" />
<glyph unicode="&#xf9;" horiz-adv-x="880" d="M81 354q0 -146 104 -250t250 -104h4q146 0 250 104t104 250v470q0 11 -8 19q-8 7 -18 7q-11 0 -19 -7q-8 -8 -8 -19v-470q0 -124 -88 -213q-89 -88 -213 -88h-4q-124 0 -213 88q-88 89 -88 213v470q0 11 -8 19q-8 7 -19 7t-18 -7q-8 -8 -8 -19v-470zM260 1212q-5 11 0 22 q4 11 16 15q11 5 22 0l301 -126q11 -5 15 -16q5 -11 0 -22q-7 -18 -27 -18q-6 0 -11 2l-301 127q-11 5 -15 16z" />
<glyph unicode="&#xfa;" horiz-adv-x="885" d="M86 354q0 -146 104 -250t250 -104h4q146 0 250 104t104 250v470q0 11 -8 19q-8 7 -18 7q-11 0 -19 -7q-8 -8 -8 -19v-470q0 -124 -88 -213q-89 -88 -213 -88h-4q-124 0 -213 88q-88 89 -88 213v470q0 11 -8 19q-8 7 -19 7t-18 -7q-8 -8 -8 -19v-470zM265 1085q-5 11 0 22 q4 11 15 16l301 126q11 5 22 0q11 -4 16 -15t0 -22q-4 -11 -15 -16l-301 -127q-6 -2 -12 -2q-19 0 -26 18z" />
<glyph unicode="&#xfb;" horiz-adv-x="888" d="M89 354q0 -146 104 -250t250 -104h4q146 0 250 104t104 250v470q0 11 -8 19q-8 7 -18 7q-11 0 -19 -7q-8 -8 -8 -19v-470q0 -124 -88 -213q-89 -88 -213 -88h-4q-124 0 -213 88q-88 89 -88 213v470q0 11 -8 19q-8 7 -19 7t-18 -7q-8 -8 -8 -19v-470zM216 1089q0 15 14 24 l196 131q10 8 19 8t19 -8l196 -131q14 -9 14 -24q0 -33 -30 -33q-10 0 -18 6l-181 121l-182 -121q-7 -6 -17 -6q-30 0 -30 33z" />
<glyph unicode="&#xfc;" horiz-adv-x="888" d="M89 354q0 -146 104 -250t250 -104h4q146 0 250 104t104 250v470q0 11 -8 19q-8 7 -18 7q-11 0 -19 -7q-8 -8 -8 -19v-470q0 -124 -88 -213q-89 -88 -213 -88h-4q-124 0 -213 88q-88 89 -88 213v470q0 11 -8 19q-8 7 -19 7t-18 -7q-8 -8 -8 -19v-470zM189 1121q0 64 64 64 t64 -64t-64 -64t-64 64zM586 1121q0 64 63 64q64 0 64 -64t-64 -64q-63 0 -63 64z" />
<glyph unicode="&#xfd;" horiz-adv-x="925" d="M81 363q0 -147 104 -250q103 -104 249 -104h4q93 0 174 47q79 45 126 122v-221q0 -124 -88 -213q-88 -88 -212 -88h-4q-92 0 -168 52q-67 45 -102 117q-5 10 -15 14q-10 3 -20 -2t-14 -15q-3 -10 2 -20q41 -85 119 -137q90 -61 198 -61h4q146 0 249 103q104 104 104 250 v872q0 11 -8 18q-7 8 -18 8t-19 -8q-8 -7 -8 -18v-466q0 -125 -88 -213t-212 -88h-4q-124 0 -212 88t-88 213v466q0 11 -8 18q-8 8 -19 8t-18 -8q-8 -7 -8 -18v-466zM259 1085q-5 11 0 22q4 11 15 16l301 126q11 5 22 0q11 -4 16 -15t0 -22q-4 -11 -15 -16l-301 -127 q-6 -2 -11 -2q-20 0 -27 18z" />
<glyph unicode="&#xfe;" horiz-adv-x="1030" d="M132 -366v1586q0 31 31 31t31 -31v-572q58 96 155.5 151t209.5 55q177 0 302 -125t125 -302t-125 -302t-302 -125q-112 0 -209.5 55t-155.5 151v-572q0 -30 -31 -30t-31 30zM194 427q0 -151 107 -258t258 -107q152 0 259 107t107 258q0 152 -107 259t-259 107 q-151 0 -258 -107t-107 -259z" />
<glyph unicode="&#xff;" horiz-adv-x="933" d="M89 363q0 -147 104 -250q103 -104 249 -104h4q93 0 174 47q79 45 126 122v-221q0 -124 -88 -213q-88 -88 -212 -88h-4q-92 0 -168 52q-67 45 -102 117q-5 10 -15 14q-10 3 -20 -2t-14 -15q-3 -10 2 -20q41 -85 119 -137q90 -61 198 -61h4q146 0 249 103q104 104 104 250 v872q0 11 -8 18q-7 8 -18 8t-19 -8q-8 -7 -8 -18v-466q0 -125 -88 -213t-212 -88h-4q-124 0 -212 88t-88 213v466q0 11 -8 18q-8 8 -19 8t-18 -8q-8 -7 -8 -18v-466zM194 1110q0 63 63 63q65 0 65 -63q0 -64 -65 -64q-63 0 -63 64zM590 1110q0 63 64 63t64 -63 q0 -64 -64 -64t-64 64z" />
<glyph unicode="&#x2c6;" horiz-adv-x="547" d="M44 1485q0 15 14 25l198 132q6 3 17 3q12 0 18 -3l198 -132q14 -10 14 -25q0 -32 -31 -32q-9 0 -18 6l-181 120l-181 -120q-8 -6 -17 -6q-31 0 -31 32z" />
<glyph unicode="&#x2dc;" horiz-adv-x="679" d="M44 1549q0 11 10 28q42 70 153 70q65 0 143 -66t121 -66q63 0 93.5 33t37.5 33q33 0 33 -30q0 -10 -11 -27q-42 -71 -153 -71q-64 0 -142.5 66.5t-121.5 66.5q-62 0 -92.5 -33.5t-38.5 -33.5q-32 0 -32 30z" />
<glyph unicode="&#x2000;" horiz-adv-x="825" />
<glyph unicode="&#x2001;" horiz-adv-x="1650" />
<glyph unicode="&#x2002;" horiz-adv-x="825" />
<glyph unicode="&#x2003;" horiz-adv-x="1650" />
<glyph unicode="&#x2004;" horiz-adv-x="550" />
<glyph unicode="&#x2005;" horiz-adv-x="412" />
<glyph unicode="&#x2006;" horiz-adv-x="275" />
<glyph unicode="&#x2007;" horiz-adv-x="275" />
<glyph unicode="&#x2008;" horiz-adv-x="206" />
<glyph unicode="&#x2009;" horiz-adv-x="330" />
<glyph unicode="&#x200a;" horiz-adv-x="91" />
<glyph unicode="&#x2010;" horiz-adv-x="546" d="M44 427q0 31 31 31h396q31 0 31 -31t-31 -31h-396q-31 0 -31 31z" />
<glyph unicode="&#x2011;" horiz-adv-x="546" d="M44 427q0 31 31 31h396q31 0 31 -31t-31 -31h-396q-31 0 -31 31z" />
<glyph unicode="&#x2012;" horiz-adv-x="546" d="M44 427q0 31 31 31h396q31 0 31 -31t-31 -31h-396q-31 0 -31 31z" />
<glyph unicode="&#x2013;" horiz-adv-x="678" d="M44 427q0 31 31 31h528q31 0 31 -31t-31 -31h-528q-31 0 -31 31z" />
<glyph unicode="&#x2014;" horiz-adv-x="1206" d="M44 427q0 31 31 31h1057q31 0 31 -31t-31 -31h-1057q-31 0 -31 31z" />
<glyph unicode="&#x2018;" horiz-adv-x="266" d="M44 956q0 82 33 164q35 89 93 139q11 9 21 9q32 0 32 -31q0 -11 -10 -22q-107 -131 -107 -259q0 -31 -31 -31t-31 31z" />
<glyph unicode="&#x2019;" horiz-adv-x="266" d="M44 939q0 11 10 22q107 130 107 259q0 31 31 31t31 -31q0 -82 -33 -165q-35 -88 -93 -138q-11 -10 -21 -10q-32 0 -32 32z" />
<glyph unicode="&#x201a;" horiz-adv-x="266" d="M44 -250q0 10 10 22q107 130 107 259q0 31 31 31t31 -31q0 -82 -33 -165q-35 -88 -93 -138q-11 -10 -21 -10q-32 0 -32 32z" />
<glyph unicode="&#x201c;" horiz-adv-x="663" d="M44 956q0 82 33 164q35 89 93 139q11 9 21 9q32 0 32 -31q0 -11 -10 -22q-107 -131 -107 -259q0 -31 -31 -31t-31 31zM440 956q0 82 33 164q35 89 93 139q11 9 21 9q32 0 32 -31q0 -11 -9 -22q-108 -131 -108 -259q0 -31 -31 -31t-31 31z" />
<glyph unicode="&#x201d;" horiz-adv-x="663" d="M44 939q0 11 10 22q107 130 107 259q0 31 31 31t31 -31q0 -82 -33 -165q-35 -88 -93 -138q-11 -10 -21 -10q-32 0 -32 32zM440 939q0 11 10 22q108 130 108 259q0 31 30 31q31 0 31 -31q0 -82 -32 -165q-36 -88 -94 -138q-10 -10 -21 -10q-32 0 -32 32z" />
<glyph unicode="&#x201e;" horiz-adv-x="663" d="M44 -250q0 10 10 22q107 130 107 259q0 31 31 31t31 -31q0 -82 -33 -165q-35 -88 -93 -138q-11 -10 -21 -10q-32 0 -32 32zM440 -250q0 10 10 22q108 130 108 259q0 31 30 31q31 0 31 -31q0 -82 -32 -165q-36 -88 -94 -138q-10 -10 -21 -10q-32 0 -32 32z" />
<glyph unicode="&#x2022;" horiz-adv-x="942" d="M33 562q0 55 22 106q28 65 75 65t75 -65q23 -51 23 -106q0 -56 -21 -107q-28 -63 -77 -63t-76 63q-21 51 -21 107zM128 224q0 118 116 194q103 69 227 69t226 -69q116 -76 116 -194q0 -71 -23 -127q-32 -75 -93 -75q-17 0 -47.5 13.5t-49.5 13.5q-26 0 -65 -24.5 t-64 -24.5q-26 0 -64.5 24.5t-65.5 24.5q-18 0 -49 -13.5t-48 -13.5q-60 0 -92 75q-24 56 -24 127zM251 684q0 55 23 106q28 64 75 64t75 -64q22 -51 22 -106q0 -57 -21 -106q-27 -64 -76 -64t-76 64q-22 49 -22 106zM495 684q0 55 22 106q29 64 75 64q48 0 75 -64 q23 -51 23 -106q0 -57 -21 -106q-27 -64 -77 -64q-48 0 -75 64q-22 49 -22 106zM714 562q0 55 23 106q27 65 75 65q46 0 75 -65q22 -51 22 -106q0 -56 -22 -107q-26 -63 -75 -63q-50 0 -77 63q-21 51 -21 107z" />
<glyph unicode="&#x2026;" horiz-adv-x="1321" d="M155 65q0 63 65 63t65 -63q0 -26 -19 -45.5t-46 -19.5q-26 0 -45.5 19.5t-19.5 45.5zM595 65q0 63 66 63q65 0 65 -63q0 -26 -19.5 -45.5t-45.5 -19.5q-27 0 -46.5 19.5t-19.5 45.5zM1036 65q0 63 65 63t65 -63q0 -26 -19.5 -45.5t-45.5 -19.5t-45.5 19.5t-19.5 45.5z " />
<glyph unicode="&#x202f;" horiz-adv-x="330" />
<glyph unicode="&#x2039;" horiz-adv-x="347" d="M44 427l2 14l198 397q9 16 26 16q33 0 33 -30q0 -8 -196 -397q196 -389 196 -397q0 -30 -33 -30q-17 0 -26 17l-198 396q-2 4 -2 14z" />
<glyph unicode="&#x203a;" horiz-adv-x="347" d="M44 30q0 9 195 397q-195 389 -195 397q0 30 33 30q17 0 26 -16l198 -397q2 -3 2 -14l-2 -14l-198 -396q-9 -17 -26 -17q-33 0 -33 30z" />
<glyph unicode="&#x205f;" horiz-adv-x="412" />
<glyph unicode="&#x20ac;" horiz-adv-x="1319" d="M44 493q0 31 31 31h131q-8 50 -8 101q0 52 8 102h-131q-31 0 -31 31q0 30 31 30h144q56 205 224.5 334t380.5 129q120 0 239 -48q126 -50 203 -135q9 -11 9 -22q0 -31 -31 -31q-11 0 -22 9q-102 86 -183 122q-96 43 -215 43q-186 0 -336.5 -111.5t-203.5 -289.5h672 q31 0 31 -30q0 -31 -31 -31h-687q-9 -50 -9 -102q0 -51 9 -101h555q30 0 30 -31t-30 -31h-540q53 -177 203.5 -288.5t336.5 -111.5q119 0 215 43q81 36 183 121q11 10 22 10q31 0 31 -32q0 -10 -9 -21q-77 -85 -203 -135q-119 -48 -239 -48q-212 0 -380.5 129t-224.5 333 h-144q-31 0 -31 31z" />
<glyph unicode="&#x2122;" horiz-adv-x="1284" d="M44 1220q0 31 31 31h396q31 0 31 -31t-31 -31h-167v-564q0 -30 -31 -30t-31 30v564h-167q-31 0 -31 31zM517 625q0 13 41 195q29 136 92 407q8 29 29 29q19 0 30 -24l169 -396l170 396q11 24 30 24q22 0 29 -29l132 -595q1 -4 1 -7q0 -30 -32 -30q-24 0 -29 23l-111 502 l-161 -375q-10 -23 -29 -23q-17 0 -28 23l-160 375l-111 -502q-6 -23 -30 -23q-32 0 -32 30z" />
<glyph unicode="&#x25fc;" horiz-adv-x="850" d="M0 0v850h850v-850h-850z" />
</font>
</defs>
</svg>
